<?xml version="1.0" standalone="no"?>
<!DOCTYPE svg PUBLIC "-//W3C//DTD SVG 1.1//EN" "http://www.w3.org/Graphics/SVG/1.1/DTD/svg11.dtd">
<svg xmlns="http://www.w3.org/2000/svg">
<defs >
<font id="Quicksand" horiz-adv-x="537" ><font-face
    font-family="Quicksand Light Light"
    units-per-em="1000"
    panose-1="0 0 0 0 0 0 0 0 0 0"
    ascent="1000"
    descent="-250"
    alphabetic="0" />
<glyph unicode=" " horiz-adv-x="270" />
<glyph unicode="!" horiz-adv-x="158" d="M79 187Q65 187 64 203L59 669Q59 683 62 691T79 700Q92 700 95 692T99 669L94 203Q93 187 79 187ZM77 0Q64 0 57 9T50 31V54Q50 68 57 76T77 85H81Q95 85 101 77T108 54V31Q108 18 102 9T81 0H77Z" />
<glyph unicode="&quot;" horiz-adv-x="367" d="M76 681Q79 700 98 700H131Q139 700 140 695T140 681L78 463Q74 446 55 446Q44 446 47 467L76 681ZM256 681Q259 700 278 700H311Q319 699 320 694T320 681L258 463Q254 446 235 446Q224 446 227 467L256 681Z" />
<glyph unicode="#" horiz-adv-x="641" d="M137 0Q125 0 119 9T114 32L226 680Q228 689 234 694T249 700Q261 700 267 691T272 669L160 20Q159 11 153 6T137 0ZM86 470Q75 470 68 477T60 495Q60 505 67 511T85 517H596Q607 517 614 510T621 492Q621 482 614 476T596
470H86ZM392 0Q380 0 374 9T369 32L481 680Q483 689 489 694T504 700Q516 700 522 691T527 669L415 20Q414 11 408 6T392 0ZM45 187Q35 187 28 194T20 212Q20 222 27 228T45 234H556Q567 234 574 227T581 209Q581 199 574 193T556 187H45Z" />
<glyph unicode="$" horiz-adv-x="550" d="M283 -10Q205 -11 149 16T41 95Q39 97 37 100T35 110Q35 118 42 125T57 133Q66 133 74 124Q114 78 167 54T279 30Q330 30 370 46T433 93T456 165Q455 216 428 247T359 298T269 335Q232 349 196 364T131 400T85 454T68
535Q68 584 94 623T170 686T288 710Q345 710 399 690T484 628Q494 614 494 607Q494 600 487 593T470 586Q462 586 457 592Q439 616 414 633T356 660T288 670Q239 670 199 654T135 609T111 536Q111 490 137 461T205 412T289 376Q327 363 364 348T432 309T481 251T499
163Q499 117 473 78T398 15T283 -10ZM300 -140Q300 -148 295 -154T280 -160Q271 -160 266 -154T260 -140V800Q260 808 265 814T280 820Q289 820 294 814T300 800V-140Z" />
<glyph unicode="%" horiz-adv-x="763" d="M177 350Q133 350 105 375T64 440T50 527Q50 575 63 616T106 683T179 708Q223 708 251 683T293 617T307 529Q307 482 293 441T251 375T177 350ZM179 390Q226 390 245 429T265 527Q265 589 243 628T177 668Q131 668 112
628T92 529Q92 468 114 429T179 390ZM583 -8Q539 -8 511 17T469 82T455 169Q455 217 469 258T512 325T585 350Q629 350 657 325T699 259T713 171Q713 124 699 83T657 17T583 -8ZM585 32Q632 32 651 71T671 169Q671 231 649 270T583 310Q537 310 517 270T497 171Q497
110 519 71T585 32ZM158 -3Q149 -3 144 2T138 16Q138 22 141 28L579 694Q585 703 595 703Q604 703 609 698T615 684Q615 678 612 672L174 6Q168 -3 158 -3Z" />
<glyph unicode="&amp;" horiz-adv-x="669" d="M269 -10Q198 -10 144 23T60 110T30 221Q30 263 47 303T100 377T191 428L222 397Q142 379 107 331T72 226Q72 176 95 131T162 58T269 30Q340 30 390 51T473 108T526 188T555 279Q557 287 562 291T576 296Q585 296
591 290T595 273Q587 221 563 171T499 79T402 14T269 -10ZM624 4Q621 4 618 5T612 8Q554 51 499 93T386 188T262 316Q227 356 199 396T155 476T138 553Q138 599 159 634T221 690T316 710Q389 710 433 682T496 616Q497 615 498 612T500 604Q500 599 495 593T480
586Q475 586 471 588T463 595Q444 625 411 647T316 670Q249 670 215 638T180 551Q180 521 195 485T236 411T295 336Q338 287 384 243T475 162T561 94T635 41Q640 38 642 34T644 25Q644 18 639 11T624 4Z" />
<glyph unicode="&apos;" horiz-adv-x="187" d="M76 681Q79 700 98 700H131Q139 699 140 694T140 681L78 463Q74 446 55 446Q44 446 47 467L76 681Z" />
<glyph unicode="(" horiz-adv-x="379" d="M331 -195Q326 -195 320 -192Q233 -152 176 -82T89 76T60 256Q60 349 90 433T179 588T321 705Q326 708 331 708Q339 708 344 703T349 689Q349 678 339 672Q264 632 211 566T129 420T100 256Q100 173 127 92T208 -56T339
-160Q348 -164 348 -177Q348 -184 344 -189T331 -195Z" />
<glyph unicode=")" horiz-adv-x="379" d="M48 -194Q41 -194 36 -189T30 -175Q30 -164 40 -158Q115 -118 168 -52T250 94T279 258Q279 341 252 422T171 569T40 674Q31 679 31 691Q31 699 35 704T48 709Q53 709 59 706Q146 666 203 596T290 439T319 258Q319 166
289 81T200 -75T58 -191Q54 -194 48 -194Z" />
<glyph unicode="*" horiz-adv-x="291" d="M145 406Q137 406 132 412T127 428L133 525Q134 528 132 529T128 529L46 473Q39 468 31 470T17 480Q13 488 15 496T27 508L117 551Q120 552 120 554T117 557L27 600Q18 605 16 613T18 630Q23 638 31 639T46 635L128 579Q130
578 132 579T133 583L127 680Q126 689 132 695T147 702Q155 702 160 696T165 680L159 583Q158 580 160 579T164 579L246 635Q254 640 262 638T275 628Q280 621 277 613T265 600L175 557Q172 556 172 554T175 551L265 508Q274 504 277 496T275 480Q271 472 263 470T246
473L164 529Q162 531 160 530T159 525L165 428Q166 419 160 413T145 406Z" />
<glyph unicode="+" horiz-adv-x="556" d="M71 223Q62 223 56 229T50 244Q50 252 56 257T71 263H485Q494 263 500 257T506 242Q506 235 500 229T485 223H71ZM278 0Q269 0 263 6T257 21V456Q257 466 263 472T278 478Q288 478 293 472T299 457V22Q299 12 293 6T278 0Z" />
<glyph unicode="," horiz-adv-x="167" d="M135 1Q135 -23 127 -43T106 -80T78 -104T49 -113Q42 -113 37 -109T31 -97Q31 -83 41 -82T66 -73Q80 -65 87 -50T95 -20Q95 -9 91 -3T78 4Q71 4 64 2T52 -5Q48 0 46 6T44 18Q45 26 51 33T68 44T88 48Q108 48 121 36T135 1Z" />
<glyph unicode="-" horiz-adv-x="388" d="M79 225Q71 225 66 231T60 246Q60 254 65 259T79 265H309Q317 265 322 259T328 244Q328 236 323 231T309 225H79Z" />
<glyph unicode="." horiz-adv-x="158" d="M77 0Q64 0 57 9T50 31V54Q50 68 57 76T77 85H81Q95 85 101 77T108 54V31Q108 18 102 9T81 0H77Z" />
<glyph unicode="/" horiz-adv-x="507" d="M20 -128Q10 -128 5 -122T0 -107Q0 -101 3 -95L448 776Q455 790 461 794T477 798Q484 798 489 793T495 779Q495 771 491 763L46 -109Q40 -120 34 -124T20 -128Z" />
<glyph unicode="0" horiz-adv-x="588" d="M294 -10Q215 -10 163 38T86 169T60 350Q60 450 85 531T163 661T294 710Q374 710 425 662T502 532T528 350Q528 251 503 169T426 39T294 -10ZM294 32Q358 32 400 73T464 186T486 350Q486 443 465 515T401 627T294 668Q230
668 188 628T124 515T102 350Q102 258 123 186T187 73T294 32Z" />
<glyph unicode="1" horiz-adv-x="323" d="M202 0Q193 0 187 6T181 20V654L191 648L35 555Q32 553 27 553Q18 553 12 560T5 575Q5 584 16 592L191 697Q198 702 208 700Q215 699 219 694T223 680V20Q223 12 217 6T202 0Z" />
<glyph unicode="2" horiz-adv-x="577" d="M507 40Q515 40 521 34T527 20Q527 11 521 6T507 0H121Q112 0 104 4T96 21Q96 27 101 34L336 296Q397 361 427 411T457 513Q457 563 438 598T380 651T285 670Q234 670 191 647T129 568Q128 563 123 558T110 552Q103 552
96 557T88 568Q88 572 89 576T93 586Q117 648 170 679T288 710Q357 710 404 686T476 618T501 517Q501 483 489 448T449 370T369 272L154 28L145 40H507Z" />
<glyph unicode="3" horiz-adv-x="519" d="M81 90Q85 90 89 89T99 80Q121 56 152 44T222 32Q277 32 321 56T392 123T419 221Q419 285 390 324T317 382T227 401Q220 401 211 401T195 399T186 398Q177 398 172 404T166 420Q166 424 167 427T171 434L386 674L392 660H70Q62
660 56 666T50 680Q50 689 56 694T70 700H416Q429 700 433 692T437 679Q437 675 436 672T431 665L219 427L199 433Q199 436 215 439T242 442Q295 442 345 418T428 345T461 221Q461 152 428 100T341 19T222 -10Q179 -10 138 5T66 54Q63 57 62 60T60 68Q60 76 66
83T81 90Z" />
<glyph unicode="4" horiz-adv-x="505" d="M360 0Q351 0 346 6T340 20V645L351 637L65 252L62 263H456Q464 263 470 258T476 244Q476 236 470 231T456 225H35Q26 225 21 232T15 246Q15 254 20 259L343 692Q348 698 353 699T360 700Q369 700 374 694T380 680V20Q380
12 374 6T360 0Z" />
<glyph unicode="5" horiz-adv-x="539" d="M221 1Q178 1 137 15T62 57Q58 60 56 64T54 72Q54 79 60 87T74 95Q82 95 88 89Q117 65 151 53T221 41Q284 41 331 65T403 135T429 239Q429 294 406 335T338 400T231 424Q193 424 160 413T106 390T78 378Q73 378 67 381T58
389T57 402L104 683Q105 688 110 694T126 700H431Q439 700 445 694T451 679Q451 670 445 664T431 658H134L143 667L97 412L77 417Q93 427 118 437T176 455T246 463Q310 463 360 435T439 358T469 242Q469 188 452 144T402 68T324 19T221 1Z" />
<glyph unicode="6" horiz-adv-x="533" d="M288 -10Q228 -10 185 10T114 65T73 143T60 232Q60 285 74 343T114 459T178 568T263 661T366 725Q372 727 375 727Q384 727 390 722T397 704Q397 698 394 694T383 686Q338 666 295 629T214 543T151 440T115 332L95 314Q114
352 145 380T216 423T299 439Q347 439 384 420T448 368T489 295T503 211Q503 154 476 104T400 22T288 -10ZM286 30Q337 30 376 53T438 116T461 211Q461 259 443 301T387 371T292 398Q231 398 189 372T124 302T101 207Q101 162 122 122T185 56T286 30Z" />
<glyph unicode="7" horiz-adv-x="501" d="M170 -2Q163 -2 156 3T149 16Q149 20 151 26L423 669L435 660H80Q72 660 66 665T60 680Q60 689 66 694T80 700H454Q465 700 468 695T471 682Q471 676 469 672L190 11Q188 5 183 2T170 -2Z" />
<glyph unicode="8" horiz-adv-x="557" d="M366 351L363 355Q396 343 424 318T469 258T487 179Q487 127 460 84T385 16T278 -10Q219 -10 172 15T98 84T70 179Q70 223 87 257T132 316T192 354L190 350Q163 363 140 387T101 443T86 514Q86 567 111 609T181 675T278
700Q331 700 374 676T443 609T469 514Q469 476 455 444T417 388T366 351ZM128 514Q128 470 149 437T204 386T278 367Q317 367 351 385T406 437T427 514Q427 579 386 619T278 660Q211 660 170 620T128 514ZM278 30Q353 30 399 72T445 179Q445 223 422 257T361 311T278
331Q234 331 196 312T135 258T112 179Q112 114 157 72T278 30Z" />
<glyph unicode="9" horiz-adv-x="555" d="M275 710Q335 710 378 690T449 635T490 557T503 468Q503 415 489 359T449 247T385 142T300 53T197 -10Q191 -12 188 -12Q179 -12 173 -5T166 11Q166 17 169 21T180 29Q241 56 297 108T394 229T448 368L468 386Q449 348
418 321T347 278T264 263Q216 263 179 282T115 333T74 406T60 489Q60 547 87 597T163 678T275 710ZM277 670Q226 670 187 648T125 584T102 489Q102 442 120 400T177 331T271 304Q332 304 374 330T439 399T462 493Q462 539 441 579T378 644T277 670Z" />
<glyph unicode=":" horiz-adv-x="158" d="M77 425Q64 425 57 434T50 456V479Q50 493 57 501T77 510H81Q95 510 101 502T108 479V456Q108 443 102 434T81 425H77ZM77 0Q64 0 57 9T50 31V54Q50 68 57 76T77 85H81Q95 85 101 77T108 54V31Q108 18 102 9T81 0H77Z" />
<glyph unicode=";" horiz-adv-x="167" d="M94 425Q81 425 72 434T63 456V479Q63 493 72 501T94 510H98Q112 510 120 502T129 479V456Q129 443 121 434T98 425H94ZM135 1Q135 -23 127 -43T106 -80T78 -104T49 -113Q42 -113 37 -109T31 -97Q31 -83 41 -82T66 -73Q80
-65 87 -50T95 -20Q95 -9 91 -3T78 4Q71 4 64 2T52 -5Q48 0 46 6T44 18Q45 26 51 33T68 44T88 48Q108 48 121 36T135 1Z" />
<glyph unicode="&lt;" horiz-adv-x="522" d="M433 0Q429 0 424 2T415 6L56 209Q44 215 40 222T35 240Q35 251 42 258T60 271L411 470Q415 472 419 473T427 475Q437 476 443 471T449 457Q449 447 445 442T433 433L79 236V239L428 46Q442 39 447 34T452 19Q452 12
447 6T433 0Z" />
<glyph unicode="=" horiz-adv-x="436" d="M71 297Q62 297 56 303T50 318Q50 326 56 331T71 337H365Q374 337 380 331T386 316Q386 309 380 303T365 297H71ZM71 118Q62 118 56 124T50 139Q50 147 56 152T71 158H365Q374 158 380 152T386 137Q386 130 380 124T365 118H71Z" />
<glyph unicode="&gt;" horiz-adv-x="531" d="M89 0Q81 0 76 6T70 19Q70 29 75 34T94 46L452 237V234L89 433Q82 437 78 442T73 457Q73 465 79 470T95 475Q99 475 103 474T111 470L471 269Q482 263 489 256T496 238Q496 227 492 220T475 207L107 6Q103 4 98 2T89 0Z" />
<glyph unicode="?" horiz-adv-x="471" d="M216 343Q216 351 222 357T236 363Q283 367 320 389T378 448T400 529Q400 580 380 617T325 676T247 697Q201 697 162 675T96 618Q91 611 85 609T70 611Q61 616 60 624T63 640Q93 682 142 708T247 735Q301 735 345 711T416
640T443 529Q443 492 427 456T383 391T317 344T237 326Q233 326 240 328T254 337V209Q254 201 249 195T235 189Q226 189 221 195T216 209V343ZM237 0Q224 0 217 9T210 31V54Q210 68 217 76T237 85H241Q255 85 261 77T268 54V31Q268 18 262 9T241 0H237Z" />
<glyph unicode="@" horiz-adv-x="975" d="M700 55Q670 55 649 66T618 97T611 145L620 222L634 230Q612 176 576 137T498 76T412 55Q367 55 335 78T284 138T266 220Q266 267 284 317T334 412T411 483T507 510Q573 510 611 470T658 376L641 331L664 477Q666 488
671 494T687 500Q698 500 702 494T704 472L654 156Q649 122 665 107T700 92Q738 92 771 118T830 188T870 286T885 396Q885 478 847 540T740 637T576 672Q471 672 381 641T224 549T118 402T80 206Q80 145 99 86T158 -20T261 -96T414 -124Q469 -124 507 -116T576
-93T639 -65Q644 -63 651 -63T662 -73Q669 -90 653 -98Q610 -119 554 -140T414 -162Q313 -162 242 -131T127 -46T61 72T40 206Q40 323 81 416T196 575T367 675T576 710Q690 710 768 668T885 554T925 396Q925 335 908 275T860 165T788 85T700 55ZM414 93Q452 93
491 113T564 169T618 249T639 343Q639 377 624 406T579 454T508 472Q461 472 424 448T361 386T322 304T308 222Q308 161 340 127T414 93Z" />
<glyph unicode="A" horiz-adv-x="649" d="M327 649L74 13Q72 7 67 4T56 0Q46 0 41 5T35 17Q34 21 36 27L305 689Q308 697 312 699T324 702Q332 702 337 699T344 689L613 27Q614 24 614 19Q614 10 608 5T593 0Q586 0 581 3T573 13L312 657L327 649ZM142 217L156
257H480L490 217H142Z" />
<glyph unicode="B" horiz-adv-x="650" d="M389 700Q469 700 517 654T565 530Q565 489 549 451T500 387T421 358L414 370Q453 370 487 359T546 324T585 268T600 189Q600 141 584 106T540 47T475 12T396 0H120Q112 0 106 6T100 20V680Q100 688 106 694T120 700H389ZM384
660H131L142 679V362L132 379H384Q443 380 483 418T523 531Q523 589 487 624T384 660ZM391 338H138L142 344V32L137 40H391Q462 40 510 75T558 189Q558 241 536 274T476 322T391 338Z" />
<glyph unicode="C" horiz-adv-x="662" d="M618 642Q626 636 627 629T623 613Q618 606 611 606T596 609Q554 638 505 655T399 672Q335 672 280 649T182 582T116 480T92 350Q92 279 116 220T182 118T279 52T399 28Q455 28 504 45T595 90Q602 95 610 94T623 86Q628
79 627 71T619 58Q595 41 559 25T481 0T399 -10Q327 -10 264 17T153 92T78 206T50 350Q50 428 77 493T153 607T264 683T399 710Q460 710 516 692T618 642Z" />
<glyph unicode="D" horiz-adv-x="720" d="M380 700Q455 700 510 672T600 594T653 481T670 350Q670 254 640 175T545 48T380 0H120Q112 0 106 6T100 20V680Q100 688 106 694T120 700H380ZM370 40Q462 40 518 81T601 193T628 350Q628 411 614 467T568 566T488 635T370
660H136L142 668V31L136 40H370Z" />
<glyph unicode="E" horiz-adv-x="567" d="M120 700H497Q505 700 511 694T517 680Q517 671 511 666T497 660H132L142 677V367L130 381H452Q460 381 466 375T472 361Q472 352 466 347T452 341H132L142 352V35L138 40H497Q505 40 511 34T517 20Q517 11 511 6T497
0H120Q112 0 106 6T100 20V680Q100 688 106 694T120 700Z" />
<glyph unicode="F" horiz-adv-x="567" d="M120 0Q111 0 106 6T100 20V680Q100 688 106 694T120 700H497Q505 700 511 694T517 680Q517 671 511 666T497 660H137L140 664V376L136 384H452Q460 384 466 378T472 364Q472 355 466 350T452 344H134L140 352V20Q140
12 135 6T120 0Z" />
<glyph unicode="G" horiz-adv-x="694" d="M409 -10Q331 -10 266 16T152 91T77 206T50 350Q50 428 76 494T151 608T265 683T409 710Q464 710 515 697T606 656Q611 653 613 649T615 639Q615 629 608 624T596 619Q592 619 589 620T583 623Q546 644 502 657T409 670Q316
670 245 629T133 515T92 350Q92 257 132 185T244 71T409 30Q459 30 507 45T593 86L589 68V318L603 305H409Q401 305 395 311T389 325Q389 334 395 339T409 345H609Q618 345 623 339T629 325V74Q629 70 627 65T620 56Q576 26 522 8T409 -10Z" />
<glyph unicode="H" horiz-adv-x="720" d="M121 700Q130 700 136 694T142 679V21Q141 12 135 6T121 0Q111 0 106 6T100 21V679Q100 688 106 694T121 700ZM599 700Q608 700 614 694T620 679V21Q619 12 613 6T599 0Q589 0 584 6T578 21V679Q578 688 584 694T599 700ZM116
380H601L599 340H110L116 380Z" />
<glyph unicode="I" horiz-adv-x="242" d="M142 21Q141 12 135 6T121 0Q111 0 106 6T100 21V679Q100 688 106 694T121 700Q130 700 136 694T142 679V21Z" />
<glyph unicode="J" horiz-adv-x="578" d="M267 -10Q202 -10 152 29T77 129Q75 135 75 139Q75 148 81 152T95 157Q103 157 107 154T114 144Q133 94 174 62T267 30Q319 30 356 51T415 110T436 199V680Q436 688 442 694T458 700Q467 700 472 694T478 680V199Q478
137 452 90T378 16T267 -10Z" />
<glyph unicode="K" horiz-adv-x="682" d="M606 -5Q598 -5 592 2L290 376L322 408L624 30Q629 23 629 16Q629 4 621 0T606 -5ZM588 696Q596 696 602 690T608 676Q608 668 602 662L136 228L127 271L574 690Q580 696 588 696ZM121 0Q111 0 106 6T100 21V679Q100 688
106 694T121 700Q130 700 136 694T142 679V21Q141 12 135 6T121 0Z" />
<glyph unicode="L" horiz-adv-x="522" d="M487 40Q495 40 501 34T507 20Q507 11 501 6T487 0H120Q111 0 106 6T100 20V680Q100 688 106 694T121 700Q130 700 136 694T142 680V22L124 40H487Z" />
<glyph unicode="M" horiz-adv-x="829" d="M119 700Q124 700 129 698T138 691L425 264H405L692 691Q700 702 711 700Q719 699 724 694T729 680V20Q729 12 723 6T708 0Q699 0 693 6T687 20V635H698L429 228Q427 224 424 222T415 220Q410 220 406 222T399 228L124
643H140V20Q140 12 134 6T120 0Q111 0 106 6T100 20V680Q100 687 105 693T119 700Z" />
<glyph unicode="N" horiz-adv-x="725" d="M606 700Q615 700 620 695T625 681V22Q625 11 619 6T604 0Q600 0 596 2T588 8L124 642L138 649V17Q138 10 133 5T119 0Q110 0 105 5T100 17V680Q100 691 106 695T118 700Q122 700 126 699T133 693L595 63L587 43V681Q587
689 593 694T606 700Z" />
<glyph unicode="O" horiz-adv-x="768" d="M718 350Q718 270 694 204T624 90T518 16T384 -10Q311 -10 250 16T144 90T75 204T50 350Q50 430 74 496T144 610T250 684T384 710Q457 710 518 684T624 610T693 496T718 350ZM676 350Q676 446 639 518T536 630T384 670Q299
670 233 630T130 518T92 350Q92 254 129 182T233 70T384 30Q470 30 535 70T638 182T676 350Z" />
<glyph unicode="P" horiz-adv-x="594" d="M360 700Q417 700 459 676T525 609T549 509Q549 453 526 408T460 337T360 311H138L142 318V20Q142 12 136 6T121 0Q111 0 106 6T100 20V680Q100 688 106 694T120 700H360ZM360 351Q406 351 438 371T489 428T507 509Q507
555 489 588T439 641T360 660H139L142 665V348L138 351H360Z" />
<glyph unicode="Q" horiz-adv-x="782" d="M780 -65Q788 -65 792 -69T797 -82Q797 -97 781 -111T737 -138T680 -158T621 -165Q562 -165 522 -152T449 -121T382 -90T301 -76Q283 -76 269 -81T244 -92T224 -98Q216 -98 210 -92T204 -77Q204 -65 215 -60L376 -4L468
0L321 -48L320 -40Q364 -40 399 -53T466 -83T536 -114T621 -127Q664 -127 692 -115T736 -94Q750 -86 759 -76T780 -65ZM718 350Q718 270 694 204T624 90T518 16T384 -10Q311 -10 250 16T144 90T75 204T50 350Q50 430 74 496T144 610T250 684T384 710Q457 710 518
684T624 610T693 496T718 350ZM676 350Q676 446 639 518T536 630T384 670Q299 670 233 630T130 518T92 350Q92 254 129 182T233 70T384 30Q470 30 535 70T638 182T676 350Z" />
<glyph unicode="R" horiz-adv-x="664" d="M121 0Q111 0 106 6T100 20V680Q100 688 106 694T120 700H384Q443 700 487 677T557 612T582 519Q582 473 566 436T520 375T452 339L406 347Q446 347 482 327T541 267T564 170Q564 121 568 96T580 58T598 39Q604 35 607
29T608 15Q606 9 602 6T592 1T581 3Q567 11 554 27T531 76T522 170Q522 217 508 245T471 288T423 308T376 313H133L142 325V20Q142 12 136 6T121 0ZM132 353H389Q429 357 463 377T518 433T540 518Q540 579 497 619T379 660H137L142 667V342L132 353Z" />
<glyph unicode="S" horiz-adv-x="550" d="M283 -10Q205 -11 149 16T41 95Q39 97 37 100T35 110Q35 118 42 125T57 133Q66 133 74 124Q114 78 167 54T279 30Q330 30 370 46T433 93T456 165Q455 216 428 247T359 298T269 335Q232 349 196 364T131 400T85 454T68
535Q68 584 94 623T170 686T288 710Q345 710 399 690T484 628Q494 614 494 607Q494 600 487 593T470 586Q462 586 457 592Q439 616 414 633T356 660T288 670Q239 670 199 654T135 609T111 536Q111 490 137 461T205 412T289 376Q327 363 364 348T432 309T481 251T499
163Q499 117 473 78T398 15T283 -10Z" />
<glyph unicode="T" horiz-adv-x="596" d="M298 0Q289 0 284 6T278 20V676H318V20Q318 12 312 6T298 0ZM55 662Q47 662 41 667T35 681Q35 689 41 694T55 700H541Q549 700 555 695T561 681Q561 672 555 667T541 662H55Z" />
<glyph unicode="U" horiz-adv-x="715" d="M595 700Q604 700 609 694T615 680V248Q615 177 580 119T487 25T358 -10Q287 -10 229 25T135 118T100 248V680Q100 688 105 694T121 700Q130 700 136 694T142 680V248Q142 188 171 139T249 60T358 30Q418 30 467 59T545
138T575 248V680Q575 688 580 694T595 700Z" />
<glyph unicode="V" horiz-adv-x="660" d="M605 700Q615 700 620 695T625 682Q625 678 623 672L349 13Q346 7 341 4T330 0Q324 0 319 3T311 13L39 669Q38 671 37 674T36 681Q36 689 42 694T55 700Q70 700 77 684L337 58L325 59L586 687Q593 700 605 700Z" />
<glyph unicode="W" horiz-adv-x="974" d="M918 702Q927 702 933 698T939 683Q939 679 937 673L708 13Q706 7 701 4T690 0Q683 0 678 2T670 12L483 484H491L304 12Q301 5 296 3T283 0Q278 0 273 3T266 13L37 673Q35 679 35 682Q35 692 42 697T57 702Q63 702 68
699T76 689L291 68L284 67L468 532Q470 538 475 541T487 545Q493 545 498 542T506 532L692 64L683 63L898 689Q900 695 905 698T918 702Z" />
<glyph unicode="X" horiz-adv-x="589" d="M539 704Q547 704 553 700T559 688Q559 681 554 674L315 345L293 379L524 696Q530 704 539 704ZM50 703Q62 703 67 695L554 29Q559 22 559 17Q559 8 553 3T538 -3Q527 -3 522 5L34 671Q30 676 30 683Q30 692 36 697T50
703ZM50 -3Q40 -3 36 3T31 14Q31 19 36 27L275 353L295 319L65 5Q60 -3 50 -3Z" />
<glyph unicode="Y" horiz-adv-x="547" d="M507 704Q517 704 522 697T527 685Q527 681 526 678T523 672L286 350L295 379V20Q295 12 289 6T274 0Q264 0 259 6T253 20V372L258 351L24 672Q22 675 21 678T20 685Q20 693 27 698T41 704Q52 704 58 695L280 392L270
394L490 695Q496 704 507 704Z" />
<glyph unicode="Z" horiz-adv-x="643" d="M570 700Q583 700 588 694T593 680Q593 673 589 668L111 28L112 38H572Q580 38 586 32T592 19Q592 11 586 6T572 0H80Q70 0 65 7T60 21Q60 28 64 33L539 666L545 662H100Q92 662 86 668T80 681Q80 689 86 694T100 700H570Z" />
<glyph unicode="[" horiz-adv-x="393" d="M100 -190Q92 -190 86 -184T80 -170V680Q80 688 86 694T100 700H333Q341 700 347 695T353 681Q353 673 347 668T333 662H110L120 669V-163L114 -150H333Q341 -150 347 -156T353 -171Q353 -178 347 -184T333 -190H100Z" />
<glyph unicode="\" horiz-adv-x="508" d="M488 -133Q475 -133 470 -127T461 -114L8 774Q6 778 6 781T5 787Q5 794 10 798T24 803Q40 803 44 798T52 784L505 -104Q508 -110 508 -116Q508 -123 502 -128T488 -133Z" />
<glyph unicode="]" horiz-adv-x="393" d="M293 700Q301 700 307 694T313 680V-170Q313 -178 307 -184T293 -190H60Q52 -190 46 -185T40 -171Q40 -163 46 -158T60 -152H283L273 -159V673L279 660H60Q52 660 46 666T40 681Q40 689 46 694T60 700H293Z" />
<glyph unicode="^" horiz-adv-x="484" d="M77 422Q69 422 64 427T59 440Q59 443 60 446T63 454L216 738Q222 750 227 755T242 760Q252 760 257 755T268 738L421 453Q423 450 423 447T424 441Q424 434 420 428T405 422Q395 422 389 427T378 443L236 718H248L104
443Q99 433 94 428T77 422Z" />
<glyph unicode="_" horiz-adv-x="654" d="M82 -160Q72 -160 66 -154T60 -140Q60 -130 66 -125T82 -120H572Q582 -120 588 -125T594 -140Q594 -148 588 -154T572 -160H82Z" />
<glyph unicode="`" horiz-adv-x="215" d="M154 554Q147 554 140 559T128 569L57 648Q54 652 52 655T50 665Q50 676 56 682T72 688Q83 688 89 683T98 672L160 579Q165 571 165 566Q165 562 162 558T154 554Z" />
<glyph unicode="a" horiz-adv-x="595" d="M492 499Q501 499 506 493T512 479V20Q512 12 506 6T492 0Q483 0 478 6T472 20V162L488 175Q488 143 472 110T428 50T362 7T280 -10Q213 -10 161 25T78 120T48 255Q48 331 78 389T161 481T280 515Q323 515 361 500T427
456T472 391T488 309L472 334V479Q472 487 477 493T492 499ZM282 28Q338 28 382 57T451 138T476 255Q476 317 451 367T382 447T282 477Q227 477 183 449T114 370T88 255Q88 190 113 139T182 58T282 28Z" />
<glyph unicode="b" horiz-adv-x="595" d="M315 515Q382 515 434 482T516 390T547 255Q547 180 517 120T434 25T315 -10Q282 -10 252 0T195 28T148 73T110 133L123 147V20Q123 12 118 6T103 0Q95 0 89 6T83 20V719Q83 727 88 733T103 739Q112 739 117 733T123 719V357L110
364Q124 401 145 429T193 476T251 505T315 515ZM313 477Q256 477 213 449T144 370T119 255Q119 190 144 139T212 58T313 28Q369 28 412 58T481 139T507 255Q507 320 482 370T413 448T313 477Z" />
<glyph unicode="c" horiz-adv-x="513" d="M300 515Q345 515 384 505T448 479T473 444Q473 437 468 431T454 424Q443 424 437 430T423 444T401 460Q387 467 362 472T299 477Q241 477 193 447T117 367T88 253Q88 189 114 138T188 58T299 28Q344 28 367 36T408 55Q429
67 437 78T456 89Q464 89 468 84T473 71Q473 59 451 40T390 5T296 -10Q223 -10 167 24T80 118T48 253Q48 323 79 382T167 478T300 515Z" />
<glyph unicode="d" horiz-adv-x="595" d="M492 740Q501 740 506 734T512 720V20Q512 12 506 6T492 0Q483 0 478 6T472 20V162L488 184Q488 150 473 116T429 53T362 7T280 -10Q214 -10 162 24T79 118T48 253Q48 328 78 387T161 481T280 515Q321 515 358 500T425
456T471 391T488 309L472 334V720Q472 728 477 734T492 740ZM282 28Q339 28 382 57T451 137T476 253Q476 318 451 368T382 448T282 477Q227 477 183 448T114 369T88 253Q88 189 113 138T183 58T282 28Z" />
<glyph unicode="e" horiz-adv-x="548" d="M304 -10Q229 -10 172 22T81 112T48 250Q48 334 80 393T164 483T274 515Q316 515 356 502T427 460T478 389T500 287Q500 279 494 273T480 266H72L66 304H469L459 295V313Q454 366 426 402T357 456T274 475Q244 475 211
462T150 421T105 351T87 253Q87 192 111 141T184 59T304 28Q338 28 368 39T422 70T461 111Q469 120 478 120Q485 120 490 115T495 102Q495 95 491 90Q460 50 412 20T304 -10Z" />
<glyph unicode="f" horiz-adv-x="332" d="M239 735Q251 735 267 733T296 725T309 707Q309 700 304 694T290 687Q280 687 266 693T235 699Q215 699 200 690T176 663T167 615V20Q167 12 161 6T147 0Q138 0 133 6T127 20V615Q127 677 160 706T239 735ZM285 493Q293
493 298 488T304 474Q304 466 299 461T285 455H47Q40 455 34 461T28 474Q28 483 34 488T47 493H285Z" />
<glyph unicode="g" horiz-adv-x="615" d="M290 515Q335 515 374 499T442 457T488 401T505 342L492 379V479Q492 487 497 493T512 499Q521 499 526 493T532 479V49Q532 -28 501 -84T414 -170T286 -200Q246 -200 206 -190T138 -163T111 -129Q111 -121 115 -116T128
-111Q138 -111 146 -122T177 -142Q186 -145 201 -150T239 -158T288 -162Q383 -162 437 -104T492 49V148L502 147Q490 104 467 74T415 26T353 -1T290 -10Q221 -10 167 24T80 118T48 253Q48 328 80 387T166 481T290 515ZM292 477Q234 477 188 448T115 369T88 253Q88
189 114 138T187 58T292 28Q350 28 396 56T469 135T496 253Q496 320 469 370T396 449T292 477Z" />
<glyph unicode="h" horiz-adv-x="562" d="M301 505Q361 505 400 479T459 409T479 312V20Q479 12 473 6T459 0Q450 0 445 6T439 20V312Q439 355 425 390T381 446T301 467Q258 467 217 446T150 390T123 312V20Q123 12 117 6T103 0Q94 0 89 6T83 20V720Q83 728 89
734T103 740Q112 740 117 734T123 720V371L98 323Q98 359 116 392T163 450T229 490T301 505Z" />
<glyph unicode="i" horiz-adv-x="206" d="M123 20Q123 12 117 6T103 0Q94 0 89 6T83 20V495Q83 503 89 509T103 515Q112 515 117 509T123 495V20ZM103 839Q87 839 78 848T68 871V879Q68 893 78 902T104 911Q118 911 127 902T137 879V871Q137 857 128 848T103 839Z" />
<glyph unicode="j" horiz-adv-x="268" d="M136 -58Q136 -103 113 -134T59 -181T-1 -198Q-10 -198 -15 -193T-20 -180V-178Q-20 -170 -15 -165T-2 -159Q20 -155 42 -144T80 -112T96 -58V480Q96 488 101 494T116 500Q125 500 130 494T136 480V-58ZM116 584Q100 584
91 593T81 616V624Q81 638 91 647T117 656Q131 656 140 647T150 624V616Q150 602 141 593T116 584Z" />
<glyph unicode="k" horiz-adv-x="524" d="M108 0Q99 0 94 6T88 20V720Q88 728 93 734T108 740Q117 740 122 734T128 720V20Q128 12 123 6T108 0ZM455 505Q463 505 469 499T475 484Q475 475 468 469L121 180L119 228L442 499Q448 505 455 505ZM461 0Q453 0 446
7L204 265L234 291L475 35Q481 29 481 20Q481 10 473 5T461 0Z" />
<glyph unicode="l" horiz-adv-x="216" d="M128 20Q128 12 122 6T108 0Q99 0 94 6T88 20V720Q88 728 94 734T108 740Q117 740 122 734T128 720V20Z" />
<glyph unicode="m" horiz-adv-x="909" d="M296 505Q352 505 398 475T462 379L449 370L454 389Q467 422 499 448T572 489T651 505Q711 505 750 479T807 410T826 311V20Q826 12 821 6T806 0Q797 0 792 6T786 20V307Q786 351 772 387T727 445T647 467Q604 467 563
446T496 388T469 307V20Q469 12 464 6T449 0Q440 0 435 6T429 20V312Q429 355 416 390T373 446T296 467Q254 467 215 446T149 390T123 312V20Q123 12 117 6T103 0Q94 0 89 6T83 20V479Q83 487 89 493T103 499Q112 499 117 493T123 479V370L93 319Q93 354 110 387T155
446T220 489T296 505Z" />
<glyph unicode="n" horiz-adv-x="572" d="M310 515Q373 515 412 490T470 422T489 326V20Q489 12 483 6T469 0Q460 0 455 6T449 20V322Q449 365 435 400T389 456T306 477Q262 477 220 456T151 400T123 322V20Q123 12 117 6T103 0Q94 0 89 6T83 20V479Q83 487 89
493T103 499Q112 499 117 493T123 479V381L98 333Q98 369 117 402T167 460T235 500T310 515Z" />
<glyph unicode="o" horiz-adv-x="589" d="M541 252Q541 178 509 119T422 25T295 -10Q225 -10 169 24T81 118T48 252Q48 327 80 386T169 480T295 515Q366 515 421 481T509 387T541 252ZM501 252Q501 317 475 367T402 447T295 477Q236 477 189 448T115 368T88 252Q88
188 115 138T189 58T295 28Q355 28 401 57T474 137T501 252Z" />
<glyph unicode="p" horiz-adv-x="595" d="M315 505Q382 505 434 472T516 382T547 250Q547 177 517 119T434 28T315 -6Q282 -6 252 3T195 30T148 74T110 133L123 147V-180Q123 -188 118 -194T103 -200Q95 -200 89 -194T83 -180V485Q83 493 88 499T103 505Q112 505
117 499T123 485V357L110 364Q124 401 145 428T193 472T251 497T315 505ZM313 467Q256 467 213 439T144 363T119 250Q119 187 144 138T212 60T313 32Q369 32 412 60T481 137T507 250Q507 313 482 362T413 439T313 467Z" />
<glyph unicode="q" horiz-adv-x="595" d="M492 505Q501 505 506 499T512 485V-180Q512 -188 506 -194T492 -200Q483 -200 478 -194T472 -180V162L488 184Q488 150 473 116T429 53T362 7T280 -10Q214 -10 162 24T79 118T48 253Q48 328 78 387T161 481T280 515Q321
515 358 500T425 456T471 391T488 309L472 334V485Q472 493 477 499T492 505ZM282 28Q339 28 382 57T451 137T476 253Q476 318 451 368T382 448T282 477Q227 477 183 448T114 369T88 253Q88 189 113 138T183 58T282 28Z" />
<glyph unicode="r" horiz-adv-x="368" d="M103 0Q94 0 89 6T83 20V479Q83 487 89 493T103 499Q112 499 117 493T123 479V310L106 284Q106 323 119 363T159 437T222 493T309 515Q323 515 339 511T355 492Q355 483 350 477T337 471Q331 471 323 475T298 480Q266
480 235 461T179 411T138 342T123 270V20Q123 12 117 6T103 0Z" />
<glyph unicode="s" horiz-adv-x="465" d="M55 80Q48 92 48 99T56 112Q61 117 69 117T84 109Q110 72 150 49T246 26Q279 26 309 37T359 70T379 124Q379 158 360 178T311 211T248 231Q213 240 182 251T126 280T88 322T74 379Q74 418 95 449T154 497T242 515Q266
515 293 509T347 489T397 448Q405 442 405 434T397 418Q391 414 384 414T372 420Q346 449 312 463T238 477Q205 477 177 466T130 434T112 379Q114 348 133 328T185 295T259 271Q292 263 320 253T370 226T404 186T417 126Q417 84 395 54T333 7T242 -10Q190 -10 142
11T55 80Z" />
<glyph unicode="t" horiz-adv-x="316" d="M37 503H269Q277 503 282 497T288 484Q288 476 283 471T269 465H37Q30 465 24 471T18 484Q18 492 24 497T37 503ZM139 650Q148 650 153 644T159 630V109Q159 76 167 61T189 41T214 36Q221 36 226 38T238 40Q245 40 250
35T255 22Q255 13 244 7T215 0Q209 0 194 0T161 9T131 40T119 107V630Q119 638 125 644T139 650Z" />
<glyph unicode="u" horiz-adv-x="563" d="M460 499Q469 499 474 493T480 479V188Q480 91 426 43T281 -6Q192 -6 138 42T83 188V479Q83 487 89 493T103 499Q112 499 117 493T123 479V188Q123 112 165 72T281 32Q355 32 397 72T440 188V479Q440 487 445 493T460 499Z" />
<glyph unicode="v" horiz-adv-x="518" d="M59 517Q64 517 69 514T77 504L262 61L252 54L440 504Q445 517 461 517Q466 517 473 513T480 501Q480 496 479 494T477 489L278 13Q273 0 259 0Q253 0 248 3T240 13L40 488Q39 490 39 492T38 497Q38 505 43 511T59 517Z" />
<glyph unicode="w" horiz-adv-x="746" d="M687 517Q695 517 701 513T708 498Q708 497 708 494T706 488L551 13Q548 7 543 4T532 0Q520 0 513 13L359 360L374 355L238 13Q233 0 219 0Q213 0 208 3T200 13L40 488Q38 494 38 498Q38 507 44 512T59 517Q65 517 70
514T77 504L226 45H209L351 397Q356 410 370 410Q376 410 381 407T389 397L542 44H522L669 504Q674 517 687 517Z" />
<glyph unicode="x" horiz-adv-x="483" d="M61 510Q71 510 77 501L438 28Q442 23 442 16Q442 8 437 2T423 -4Q414 -4 406 5L44 477Q40 482 40 489Q40 498 46 504T61 510ZM61 -4Q54 -4 48 0T42 15Q42 22 46 27L221 254L245 223L77 4Q71 -4 61 -4ZM423 510Q433 510
437 505T442 493Q442 490 441 487T437 480L262 246L241 281L406 501Q414 510 423 510Z" />
<glyph unicode="y" horiz-adv-x="562" d="M459 515Q468 515 473 509T479 495V49Q479 -28 448 -84T364 -170T243 -200Q197 -200 161 -189T101 -162Q94 -157 90 -150T90 -135Q94 -127 101 -124T116 -126Q133 -136 167 -150T245 -164Q303 -164 346 -137T414 -62T439
49V123L441 98Q427 68 399 44T335 5T261 -10Q199 -10 160 14T102 82T83 183V495Q83 503 88 509T103 515Q112 515 117 509T123 495V183Q123 112 154 70T261 28Q306 28 346 50T413 109T439 183V495Q439 503 444 509T459 515Z" />
<glyph unicode="z" horiz-adv-x="477" d="M397 38Q405 38 411 32T417 19Q417 11 411 6T397 0H71Q61 0 56 7T50 20Q50 24 51 27T55 33L377 485L382 477H101Q93 477 87 483T81 496Q81 504 87 509T101 515H407Q415 515 420 509T427 495Q427 491 426 488T422 481L102
33L87 38H397Z" />
<glyph unicode="{" horiz-adv-x="436" d="M369 -200Q367 -200 366 -200T362 -199Q282 -181 241 -154T185 -89T171 0V79Q171 118 161 154T124 213T51 236H45Q37 236 31 242T25 256Q25 264 31 269T45 274H51Q100 274 126 297T161 356T171 431V510Q171 562 186 595T227
649T287 683T360 708Q377 713 381 706T386 694Q386 688 382 683T370 676Q303 656 269 635T223 584T211 504V429Q211 365 188 316T121 255L119 256Q166 244 188 195T211 81V6Q211 -42 222 -73T268 -126T370 -166Q388 -171 385 -189Q384 -193 380 -196T369 -200Z"
/>
<glyph unicode="|" horiz-adv-x="190" d="M115 -180Q115 -188 110 -194T95 -200Q86 -200 81 -194T75 -180V760Q75 768 80 774T95 780Q104 780 109 774T115 760V-180Z" />
<glyph unicode="}" horiz-adv-x="436" d="M68 -200Q58 -200 54 -195T50 -184Q50 -178 54 -173T66 -166Q133 -146 167 -125T213 -73T225 6V81Q225 145 248 195T315 255L317 254Q271 266 248 315T225 429V504Q225 553 214 584T168 636T66 676Q48 681 51 699Q53 704
57 707T67 710Q69 710 71 710T74 709Q155 692 196 665T251 599T265 510V431Q265 392 275 356T312 297T385 274H391Q399 274 405 268T411 254Q411 247 405 242T391 236H385Q336 236 310 213T275 154T265 79V0Q265 -37 256 -63T225 -109T166 -150T74 -199Q73 -200
72 -200T68 -200Z" />
<glyph unicode="~" horiz-adv-x="437" d="M307 213Q287 213 264 221T217 239T170 258T129 266Q114 266 103 257T85 224Q83 217 78 214T66 210Q59 210 55 213T50 224Q50 239 58 258T85 291T133 306Q154 306 178 298T227 279T274 260T315 251Q330 251 339 262T351
294Q352 302 357 307T370 312Q376 312 381 309T387 299Q387 262 366 238T307 213Z" />
<glyph unicode="&#xa0;" horiz-adv-x="270" />
<glyph unicode="&#xa1;" horiz-adv-x="158" d="M79 314Q93 314 94 298L99 -168Q99 -182 96 -190T79 -199Q66 -199 63 -191T59 -168L64 298Q65 314 79 314ZM81 501Q94 501 101 492T108 470V447Q108 433 101 425T81 416H77Q63 416 57 424T50 447V470Q50 483 56 492T77
501H81Z" />
<glyph unicode="&#xa2;" horiz-adv-x="513" d="M307 20Q307 12 302 6T287 0Q278 0 273 6T267 20V96V115V578V592V665Q267 673 272 679T287 685Q296 685 301 679T307 665V596V582V103V92V20ZM296 80Q223 80 167 114T80 208T48 343Q48 413 79 472T167 568T300 605Q345
605 384 595T448 569T473 534Q473 527 468 521T454 514Q443 514 437 520T423 534T401 550Q387 557 362 562T299 567Q241 567 193 537T117 457T88 343Q88 279 114 228T188 148T299 118Q344 118 367 126T408 145Q429 157 437 168T456 179Q464 179 468 174T473 161Q473
149 451 130T390 95T296 80Z" />
<glyph unicode="&#xa3;" horiz-adv-x="611" d="M71 335Q62 335 56 340T50 355Q50 363 56 369T71 375H464Q473 375 479 369T485 355Q485 346 479 341T464 335H71ZM249 57Q291 57 336 47T423 27T500 16Q531 16 548 22T579 40Q586 48 590 49T599 51Q610 51 613 45T617
33Q617 24 612 19T604 10Q579 -7 552 -15T501 -24Q469 -24 438 -18T375 -3T312 12T248 19Q219 20 191 14T141 1T110 -8Q96 -10 84 -15T67 -21Q58 -21 54 -15T50 -3Q50 3 54 8T67 16Q105 26 133 35T188 50T249 57ZM147 7L120 23Q133 28 148 47T174 96T186 163Q186
198 179 232T161 303T144 380T136 471Q136 544 162 597T237 680T351 710Q408 710 462 690T547 628Q552 621 554 616T557 607Q557 600 550 593T533 586Q530 586 527 587T520 592Q493 627 449 648T351 670Q298 670 259 646T199 577T178 472Q178 422 185 380T203 300T220
230T228 163Q228 126 217 96T188 43T147 7Z" />
<glyph unicode="&#xa4;" horiz-adv-x="464" d="M68 467Q75 467 81 461L141 408Q141 408 135 401T123 387T117 380L57 435Q50 442 50 448Q50 453 52 457T59 464T68 467ZM396 467Q400 467 404 464T411 457T414 448Q414 442 407 435L348 382Q348 382 343 389T332
402T326 409L383 461Q389 467 396 467ZM396 131Q389 131 383 137L326 189Q326 189 332 196T344 209T350 216L407 163Q414 156 414 150Q414 146 412 142T405 134T396 131ZM68 131Q64 131 60 134T53 141T50 150Q50 156 57 163L118 220Q118 220 124 214T137 200T143
193L81 137Q75 131 68 131ZM232 144Q191 144 157 165T103 221T83 299Q83 342 103 377T157 433T232 454Q274 454 308 433T362 377T382 299Q382 256 362 221T308 165T232 144ZM232 174Q264 174 290 190T331 235T347 298Q347 333 332 361T290 406T232 423Q201 423
175 406T134 361T118 298Q118 264 133 236T175 191T232 174Z" />
<glyph unicode="&#xa5;" horiz-adv-x="547" d="M97 168Q88 168 82 173T76 187Q76 196 82 201T97 207L452 203Q461 203 467 198T473 183Q473 175 467 170T452 164L97 168ZM97 298Q88 298 82 303T76 317Q76 326 82 331T97 337L452 333Q461 333 467 328T473 313Q473
305 467 300T452 294L97 298ZM507 704Q517 704 522 697T527 685Q527 681 526 678T523 672L286 350L295 379V20Q295 12 289 6T274 0Q264 0 259 6T253 20V372L258 351L24 672Q22 675 21 678T20 685Q20 690 23 694T31 701T41 704Q52 704 58 695L280 392L270 394L490
695Q493 700 497 702T507 704Z" />
<glyph unicode="&#xa6;" horiz-adv-x="191" d="M116 390Q116 382 111 376T96 370Q87 370 82 376T76 390V760Q76 768 81 774T96 780Q105 780 110 774T116 760V390ZM115 -180Q115 -188 110 -194T95 -200Q86 -200 81 -194T75 -180V190Q75 198 80 204T95 210Q104 210
109 204T115 190V-180Z" />
<glyph unicode="&#xa7;" horiz-adv-x="524" d="M474 279Q474 231 436 192T327 145L324 158Q382 129 409 99T436 22Q436 -20 422 -50T382 -100T324 -129T254 -139Q209 -139 171 -126T104 -94T59 -60Q55 -56 52 -52T49 -41Q49 -34 54 -28T68 -22Q71 -22 75 -23T82
-27Q96 -41 120 -58T178 -87T252 -99Q268 -99 292 -96T340 -81T380 -45T396 22Q396 51 377 74T322 115T236 148Q159 171 113 206T66 305Q66 329 75 351T101 393T147 425T212 443L210 430Q159 450 134 485T108 562Q108 603 125 630T170 674T227 698T282 705Q332
705 367 688T426 651Q435 644 435 636Q435 629 431 622T416 615Q408 615 403 619Q381 636 352 650T282 665Q252 665 221 655T169 623T148 562Q148 529 166 506T212 469T264 447T304 435Q383 411 428 378T474 279ZM244 188L304 176Q345 176 374 191T418 230T434
279Q434 323 401 348T296 395L224 410Q193 410 166 396T123 358T106 307Q106 267 138 239T244 188Z" />
<glyph unicode="&#xa8;" horiz-adv-x="392" d="M278 600Q262 600 253 610T243 636V644Q243 660 253 670T279 680Q293 680 302 670T312 644V636Q312 620 303 610T278 600ZM115 600Q99 600 90 610T80 636V644Q80 660 90 670T116 680Q130 680 139 670T149 644V636Q149
620 140 610T115 600Z" />
<glyph unicode="&#xa9;" horiz-adv-x="800" d="M400 0Q328 0 265 26T153 98T77 209T50 350Q50 427 77 491T152 601T264 674T400 700Q472 700 535 674T647 602T722 491T750 350Q750 274 723 210T647 99T536 26T400 0ZM400 38Q464 38 520 61T619 125T686 224T710
350Q710 418 686 475T619 574T520 639T400 662Q336 662 280 639T181 574T114 475T90 350Q90 281 114 224T181 126T280 61T400 38ZM419 158Q357 158 313 184T246 253T222 350Q222 403 245 446T313 515T419 541Q486 541 538 505Q544 501 545 493T542 477Q538 470
530 470T515 473Q494 487 470 495T419 503Q369 503 334 483T280 429T262 350Q262 306 280 271T333 216T419 196Q446 196 470 204T516 226Q522 230 530 229T542 221Q547 216 546 208T538 193Q513 177 482 168T419 158Z" />
<glyph unicode="&#xaa;" horiz-adv-x="349" d="M149 391Q108 391 81 413T39 473T25 555Q25 599 42 634T90 689T157 710Q206 710 240 678T275 583L259 624V674Q259 682 264 688T279 694Q288 694 293 688T299 674V421Q299 412 293 407T279 401Q270 401 265 407T259
421V474L275 503Q275 478 258 452T213 409T149 391ZM156 429Q203 429 233 462T263 555Q263 611 236 641T164 672Q124 672 95 639T65 555Q65 503 87 466T156 429Z" />
<glyph unicode="&#xab;" horiz-adv-x="444" d="M377 50Q368 50 360 59L226 238Q220 246 220 256Q220 265 226 272L360 451Q368 461 378 461Q387 461 393 456T399 442Q399 433 392 426L263 249L260 265L392 87Q395 83 397 80T399 72Q399 60 392 55T377 50ZM438
50Q429 50 421 59L287 238Q281 246 281 256Q281 265 287 272L421 451Q429 461 439 461Q448 461 454 456T460 442Q460 433 453 426L324 249L321 265L453 87Q456 83 458 80T460 72Q460 60 453 55T438 50Z" />
<glyph unicode="&#xac;" horiz-adv-x="639" d="M569 135Q560 135 554 141T547 157V366L563 358H72Q63 358 57 363T50 378Q50 386 56 392T72 398H564Q575 398 582 391T589 373V158Q589 148 584 142T569 135Z" />
<glyph unicode="&#xad;" horiz-adv-x="388" d="M79 225Q71 225 66 231T60 246Q60 254 65 259T79 265H309Q317 265 322 259T328 244Q328 236 323 231T309 225H79Z" />
<glyph unicode="&#xae;" horiz-adv-x="548" d="M216 363Q209 363 203 368T197 379V587Q197 592 201 597T212 602H281Q322 602 344 587T366 536Q366 508 349 494T300 474L297 483Q314 482 330 464T347 420Q347 404 350 398T360 390Q366 389 368 386T370 379Q370
370 362 365T341 360Q328 360 318 374T308 417Q308 434 300 446T274 458H225L235 468V379Q235 373 230 368T216 363ZM276 494Q298 494 313 503T328 532Q328 553 316 559T281 566H218L235 579V486L224 494H276ZM274 258Q213 258 162 287T81 366T50 482Q50 547 80
597T162 677T274 706Q336 706 386 677T467 598T498 482Q498 417 468 367T387 287T274 258ZM274 296Q326 296 367 319T432 385T456 482Q456 538 432 579T367 644T274 668Q222 668 181 645T115 580T90 482Q90 427 114 385T180 320T274 296Z" />
<glyph unicode="&#xaf;" horiz-adv-x="380" d="M70 566Q50 566 50 586Q50 607 70 607H310Q330 607 330 586Q330 566 310 566H70Z" />
<glyph unicode="&#xb0;" horiz-adv-x="312" d="M156 432Q119 432 90 451T43 501T25 568Q25 606 42 637T89 687T156 706Q194 706 223 687T270 638T287 570Q287 533 270 502T223 451T156 432ZM156 470Q195 470 221 500T247 570Q247 608 221 638T156 668Q117 668
91 638T65 568Q65 530 91 500T156 470Z" />
<glyph unicode="&#xb1;" horiz-adv-x="504" d="M78 266Q69 266 63 272T57 287Q57 295 63 300T78 306H420Q429 306 435 300T441 285Q441 278 435 272T420 266H78ZM253 113Q244 113 238 119T232 134V439Q232 449 238 455T253 461Q263 461 268 455T274 440V135Q274
125 268 119T253 113ZM72 0Q62 0 56 6T50 21Q50 29 56 34T71 40H433Q442 40 448 35T454 19Q454 9 448 5T433 0H72Z" />
<glyph unicode="&#xb2;" horiz-adv-x="301" d="M70 525Q61 525 56 529T50 545Q50 549 52 553T60 564L144 659Q163 685 184 708T205 758Q205 774 192 786T152 799Q132 799 114 787T89 752Q88 746 83 741T70 736Q63 736 58 740T52 750Q52 761 62 781T96 818T158
835Q187 835 206 824T235 796T245 760Q245 731 233 710T204 672T173 635L104 553L99 561H231Q239 561 245 556T251 543Q251 536 245 531T231 525H70Z" />
<glyph unicode="&#xb3;" horiz-adv-x="299" d="M140 515Q118 515 95 523T54 544Q45 551 45 562Q45 570 50 576T63 582Q69 582 73 579T85 570Q91 566 107 561T140 555Q170 555 192 573T214 617Q214 643 197 656T153 669Q144 669 131 667T107 661Q97 659 91 665T84
679Q84 683 85 686T89 692L197 799L200 787H78Q70 787 64 793T58 806Q58 814 64 819T78 825H222Q230 825 235 821T242 809Q245 800 237 790L141 696L117 691Q117 694 133 699T160 704Q183 704 204 697T240 670T254 617Q254 587 238 564T197 528T140 515Z" />
<glyph unicode="&#xb4;" horiz-adv-x="288" d="M96 596Q91 596 88 600T85 608Q85 613 90 621L152 714Q155 719 161 724T178 730Q189 730 196 724T204 705Q204 699 202 696T197 688L122 611Q117 606 111 601T96 596Z" />
<glyph unicode="&#xb5;" horiz-adv-x="536" d="M100 -150Q91 -150 86 -144T80 -130V495Q80 503 86 509T100 515Q109 515 114 509T120 495V183Q120 141 133 107T176 51T253 30Q285 30 315 43T371 79T411 128T426 183V495Q426 503 432 509T446 515Q455 515 460 509T466
495V20Q466 12 460 6T446 0Q437 0 432 6T426 20V114L428 104Q417 75 391 49T329 7T253 -10Q220 -10 188 4T132 44T104 109L120 89V-130Q120 -138 115 -144T100 -150Z" />
<glyph unicode="&#xb6;" horiz-adv-x="620" d="M500 0Q490 0 485 6T480 23V671L499 660H361L378 671V55Q378 24 365 -2T326 -43T265 -59Q231 -59 207 -46T182 -17Q182 -9 188 -3T204 4Q211 4 216 1T228 -7Q235 -12 243 -16T265 -21Q297 -21 317 2T338 56V291L355
264H313Q217 266 159 288T76 358T50 487Q50 571 77 617T167 681T334 700H500Q508 700 514 694T520 680V23Q520 13 515 7T500 0Z" />
<glyph unicode="&#xb7;" horiz-adv-x="186" d="M91 255Q78 255 69 264T60 286V309Q60 323 69 331T91 340H95Q109 340 117 332T126 309V286Q126 273 118 264T95 255H91Z" />
<glyph unicode="&#xb8;" horiz-adv-x="283" d="M66 -141Q61 -141 53 -138T38 -128T31 -114Q31 -105 36 -100L126 10H154L87 -126Q80 -141 66 -141Z" />
<glyph unicode="&#xb9;" horiz-adv-x="189" d="M120 519Q111 519 106 525T101 539L100 774L106 772L55 741Q52 740 49 739T43 737Q36 737 31 742T26 755Q26 765 36 772L106 815Q113 820 123 818Q130 817 134 812T138 798L139 539Q139 531 134 525T120 519Z" />
<glyph unicode="&#xba;" horiz-adv-x="348" d="M323 549Q323 504 304 469T250 413T173 392Q131 392 98 412T45 468T25 549Q25 595 44 631T97 688T173 710Q216 710 250 689T303 631T323 549ZM285 549Q285 602 255 637T173 672Q123 672 93 637T63 549Q63 499 93
464T173 429Q224 429 254 464T285 549Z" />
<glyph unicode="&#xbb;" horiz-adv-x="431" d="M249 461Q259 461 266 452L400 273Q406 266 406 255Q406 247 400 239L266 60Q258 50 248 50Q239 50 233 55T227 69Q227 78 234 85L363 262L366 246L234 424Q231 428 229 431T227 439Q227 451 234 456T249 461ZM323
461Q333 461 340 452L474 273Q480 266 480 255Q480 247 474 239L340 60Q332 50 322 50Q313 50 307 55T301 69Q301 78 308 85L437 262L440 246L308 424Q305 428 303 431T301 439Q301 451 308 456T323 461Z" />
<glyph unicode="&#xbc;" horiz-adv-x="640" d="M144 399Q135 399 130 405T125 419L124 654L130 652L79 621Q76 620 73 619T67 617Q60 617 55 622T50 635Q50 645 60 652L130 695Q137 700 147 698Q154 697 158 692T162 678L163 419Q163 411 158 405T144 399ZM75
-3Q66 -3 61 2T55 16Q55 22 58 28L496 694Q502 703 512 703Q521 703 526 698T532 684Q532 678 529 672L91 6Q85 -3 75 -3ZM515 -7Q508 -7 502 -2T496 12V242L501 234L399 99L400 108H571Q590 106 590 90Q590 72 571 72H377Q370 72 364 78T357 92Q357 96 358 99T362
106L497 285Q499 288 504 290T514 293Q523 293 528 287T534 273V12Q534 4 529 -1T515 -7Z" />
<glyph unicode="&#xbd;" horiz-adv-x="605" d="M144 399Q135 399 130 405T125 419L124 654L130 652L79 621Q76 620 73 619T67 617Q60 617 55 622T50 635Q50 645 60 652L130 695Q137 700 147 698Q154 697 158 692T162 678L163 419Q163 411 158 405T144 399ZM70
-3Q61 -3 56 2T50 16Q50 22 53 28L491 694Q497 703 507 703Q516 703 521 698T527 684Q527 678 524 672L86 6Q80 -3 70 -3ZM374 0Q365 0 360 4T354 20Q354 24 356 28T364 39L448 134Q467 160 488 183T509 233Q509 249 496 261T456 274Q436 274 418 262T393 227Q392
221 387 216T374 211Q367 211 362 215T356 225Q356 236 366 256T400 293T462 310Q491 310 510 299T539 271T549 235Q549 206 537 185T508 147T477 110L408 28L403 36H535Q543 36 549 31T555 18Q555 11 549 6T535 0H374Z" />
<glyph unicode="&#xbe;" horiz-adv-x="702" d="M145 395Q123 395 100 403T59 424Q50 431 50 442Q50 450 55 456T68 462Q74 462 78 459T90 450Q96 446 112 441T145 435Q175 435 197 453T219 497Q219 523 202 536T158 549Q149 549 136 547T112 541Q102 539 96 545T89
559Q89 563 90 566T94 572L202 679L205 667H83Q75 667 69 673T63 686Q63 694 69 699T83 705H227Q235 705 240 701T247 689Q250 680 242 670L146 576L122 571Q122 574 138 579T165 584Q188 584 209 577T245 550T259 497Q259 467 243 444T202 408T145 395ZM120 -3Q111
-3 106 2T100 16Q100 22 103 28L541 694Q547 703 557 703Q566 703 571 698T577 684Q577 678 574 672L136 6Q130 -3 120 -3ZM577 -7Q570 -7 564 -2T558 12V242L563 234L461 99L462 108H633Q652 106 652 90Q652 72 633 72H439Q432 72 426 78T419 92Q419 96 420 99T424
106L559 285Q561 288 566 290T576 293Q585 293 590 287T596 273V12Q596 4 591 -1T577 -7Z" />
<glyph unicode="&#xbf;" horiz-adv-x="459" d="M277 214Q277 206 271 200T257 194Q210 190 173 168T115 109T93 28Q93 -23 113 -60T168 -119T246 -140Q292 -140 331 -118T397 -61Q402 -54 408 -52T423 -54Q432 -59 433 -67T430 -83Q400 -125 351 -151T246 -178Q192
-178 148 -154T77 -83T50 28Q50 65 66 101T110 166T176 213T256 231Q260 231 253 229T239 220V348Q239 356 244 362T258 368Q267 368 272 362T277 348V214ZM256 557Q269 557 276 548T283 526V503Q283 489 276 481T256 472H252Q238 472 232 480T225 503V526Q225
539 231 548T252 557H256Z" />
<glyph unicode="&#xc0;" horiz-adv-x="649" d="M327 649L74 13Q72 7 67 4T56 0Q46 0 41 5T35 17Q34 21 36 27L305 689Q308 697 312 699T324 702Q332 702 337 699T344 689L613 27Q614 24 614 19Q614 10 608 5T593 0Q586 0 581 3T573 13L312 657L327 649ZM142 217L156
257H480L490 217H142ZM325 748Q319 748 314 750T304 755L207 802Q193 810 193 826Q193 835 198 842T216 850Q223 850 228 848T238 842L328 775Q332 772 334 769T337 760Q337 756 335 752T325 748Z" />
<glyph unicode="&#xc1;" horiz-adv-x="649" d="M327 649L74 13Q72 7 67 4T56 0Q46 0 41 5T35 17Q34 21 36 27L305 689Q308 697 312 699T324 702Q332 702 337 699T344 689L613 27Q614 24 614 19Q614 10 608 5T593 0Q586 0 581 3T573 13L312 657L327 649ZM142 217L156
257H480L490 217H142ZM329 748Q322 748 320 752T317 760Q317 765 319 768T326 775L416 842Q420 845 425 847T438 850Q450 850 455 843T461 826Q461 817 458 812T447 802L350 755Q346 753 341 751T329 748Z" />
<glyph unicode="&#xc2;" horiz-adv-x="649" d="M327 649L74 13Q72 7 67 4T56 0Q46 0 41 5T35 17Q34 21 36 27L305 689Q308 697 312 699T324 702Q332 702 337 699T344 689L613 27Q614 24 614 19Q614 10 608 5T593 0Q586 0 581 3T573 13L312 657L327 649ZM142 217L156
257H480L490 217H142ZM329 854L239 778Q234 774 230 771T220 768Q215 768 212 772T208 780Q208 783 209 786T214 792L295 878Q301 884 306 887T319 890H329Q337 890 342 887T353 878L434 793Q437 790 438 787T440 781Q440 777 437 773T428 769Q424 769 419 772T409
779L318 850L329 854Z" />
<glyph unicode="&#xc3;" horiz-adv-x="649" d="M327 649L74 13Q72 7 67 4T56 0Q46 0 41 5T35 17Q34 21 36 27L305 689Q308 697 312 699T324 702Q332 702 337 699T344 689L613 27Q614 24 614 19Q614 10 608 5T593 0Q586 0 581 3T573 13L312 657L327 649ZM142 217L156
257H480L490 217H142ZM198 782Q188 782 185 791T186 817Q195 850 218 864T265 878Q286 878 310 864T357 835T397 821Q412 821 421 833T434 866Q435 874 439 879T452 884Q464 884 466 875T466 850Q461 826 450 812T423 791T389 785Q370 785 347 799T301 826T261
840Q246 840 235 830T216 796Q214 789 209 786T198 782Z" />
<glyph unicode="&#xc4;" horiz-adv-x="649" d="M327 649L74 13Q72 7 67 4T56 0Q46 0 41 5T35 17Q34 21 36 27L305 689Q308 697 312 699T324 702Q332 702 337 699T344 689L613 27Q614 24 614 19Q614 10 608 5T593 0Q586 0 581 3T573 13L312 657L327 649ZM142 217L156
257H480L490 217H142ZM407 780Q391 780 382 790T372 816V824Q372 840 382 850T408 860Q422 860 431 850T441 824V816Q441 800 432 790T407 780ZM244 780Q228 780 219 790T209 816V824Q209 840 219 850T245 860Q259 860 268 850T278 824V816Q278 800 269 790T244
780Z" />
<glyph unicode="&#xc5;" horiz-adv-x="649" d="M325 671Q299 671 277 683T241 717T227 765Q227 791 240 812T276 846T325 859Q351 859 373 847T409 813T423 765Q423 739 410 718T374 684T325 671ZM325 703Q351 703 369 721T387 765Q387 791 369 809T325 827Q300
827 282 809T263 765Q263 740 281 722T325 703ZM327 649L74 13Q72 7 67 4T56 0Q46 0 41 5T35 17Q34 21 36 27L305 689Q308 697 312 699T324 702Q332 702 337 699T344 689L613 27Q614 24 614 19Q614 10 608 5T593 0Q586 0 581 3T573 13L312 657L327 649ZM142 217L156
257H480L490 217H142Z" />
<glyph unicode="&#xc6;" horiz-adv-x="931" d="M168 217H491L474 201V662L487 640L45 8Q39 -1 28 -1Q21 -1 15 5T9 20Q9 27 12 31L474 691Q478 696 482 698T492 700H861Q869 700 875 694T881 680Q881 671 875 666T861 660H507L514 670V371L508 381H816Q824 381
830 375T836 361Q836 352 830 347T816 341H506L514 350V30L508 40H861Q869 40 875 34T881 20Q881 11 875 6T861 0H494Q486 0 480 6T474 20V191L491 177H129L168 217Z" />
<glyph unicode="&#xc7;" horiz-adv-x="662" d="M618 642Q626 636 627 629T623 613Q618 606 611 606T596 609Q554 638 505 655T399 672Q335 672 280 649T182 582T116 480T92 350Q92 279 116 220T182 118T279 52T399 28Q455 28 504 45T595 90Q602 95 610 94T623
86Q628 79 627 71T619 58Q595 41 559 25T481 0T399 -10Q327 -10 264 17T153 92T78 206T50 350Q50 428 77 493T153 607T264 683T399 710Q460 710 516 692T618 642ZM341 -141Q336 -141 328 -138T313 -128T306 -114Q306 -105 311 -100L401 10H429L362 -126Q355 -141
341 -141Z" />
<glyph unicode="&#xc8;" horiz-adv-x="567" d="M120 700H497Q505 700 511 694T517 680Q517 671 511 666T497 660H132L142 677V367L130 381H452Q460 381 466 375T472 361Q472 352 466 347T452 341H132L142 352V35L138 40H497Q505 40 511 34T517 20Q517 11 511 6T497
0H120Q112 0 106 6T100 20V680Q100 688 106 694T120 700ZM322 748Q316 748 311 750T301 755L204 802Q190 810 190 826Q190 835 195 842T213 850Q220 850 225 848T235 842L325 775Q329 772 331 769T334 760Q334 756 332 752T322 748Z" />
<glyph unicode="&#xc9;" horiz-adv-x="567" d="M120 700H497Q505 700 511 694T517 680Q517 671 511 666T497 660H132L142 677V367L130 381H452Q460 381 466 375T472 361Q472 352 466 347T452 341H132L142 352V35L138 40H497Q505 40 511 34T517 20Q517 11 511 6T497
0H120Q112 0 106 6T100 20V680Q100 688 106 694T120 700ZM326 748Q319 748 317 752T314 760Q314 765 316 768T323 775L413 842Q417 845 422 847T435 850Q447 850 452 843T458 826Q458 817 455 812T444 802L347 755Q343 753 338 751T326 748Z" />
<glyph unicode="&#xca;" horiz-adv-x="567" d="M120 700H497Q505 700 511 694T517 680Q517 671 511 666T497 660H132L142 677V367L130 381H452Q460 381 466 375T472 361Q472 352 466 347T452 341H132L142 352V35L138 40H497Q505 40 511 34T517 20Q517 11 511 6T497
0H120Q112 0 106 6T100 20V680Q100 688 106 694T120 700ZM326 854L236 778Q231 774 227 771T217 768Q212 768 209 772T205 780Q205 783 206 786T211 792L292 878Q298 884 303 887T316 890H326Q334 890 339 887T350 878L431 793Q434 790 435 787T437 781Q437 777
434 773T425 769Q421 769 416 772T406 779L315 850L326 854Z" />
<glyph unicode="&#xcb;" horiz-adv-x="567" d="M120 700H497Q505 700 511 694T517 680Q517 671 511 666T497 660H132L142 677V367L130 381H452Q460 381 466 375T472 361Q472 352 466 347T452 341H132L142 352V35L138 40H497Q505 40 511 34T517 20Q517 11 511 6T497
0H120Q112 0 106 6T100 20V680Q100 688 106 694T120 700ZM404 780Q388 780 379 790T369 816V824Q369 840 379 850T405 860Q419 860 428 850T438 824V816Q438 800 429 790T404 780ZM241 780Q225 780 216 790T206 816V824Q206 840 216 850T242 860Q256 860 265 850T275
824V816Q275 800 266 790T241 780Z" />
<glyph unicode="&#xcc;" horiz-adv-x="242" d="M142 21Q141 12 135 6T121 0Q111 0 106 6T100 21V679Q100 688 106 694T121 700Q130 700 136 694T142 679V21ZM377 748Q371 748 366 750T356 755L259 802Q245 810 245 826Q245 835 250 842T268 850Q275 850 280 848T290
842L380 775Q384 772 386 769T389 760Q389 756 387 752T377 748Z" />
<glyph unicode="&#xcd;" horiz-adv-x="242" d="M142 21Q141 12 135 6T121 0Q111 0 106 6T100 21V679Q100 688 106 694T121 700Q130 700 136 694T142 679V21ZM125 748Q118 748 116 752T113 760Q113 765 115 768T122 775L212 842Q216 845 221 847T234 850Q246 850
251 843T257 826Q257 817 254 812T243 802L146 755Q142 753 137 751T125 748Z" />
<glyph unicode="&#xce;" horiz-adv-x="242" d="M142 21Q141 12 135 6T121 0Q111 0 106 6T100 21V679Q100 688 106 694T121 700Q130 700 136 694T142 679V21ZM381 854L291 778Q286 774 282 771T272 768Q267 768 264 772T260 780Q260 783 261 786T266 792L347 878Q353
884 358 887T371 890H381Q389 890 394 887T405 878L486 793Q489 790 490 787T492 781Q492 777 489 773T480 769Q476 769 471 772T461 779L370 850L381 854Z" />
<glyph unicode="&#xcf;" horiz-adv-x="242" d="M142 21Q141 12 135 6T121 0Q111 0 106 6T100 21V679Q100 688 106 694T121 700Q130 700 136 694T142 679V21ZM459 780Q443 780 434 790T424 816V824Q424 840 434 850T460 860Q474 860 483 850T493 824V816Q493 800
484 790T459 780ZM296 780Q280 780 271 790T261 816V824Q261 840 271 850T297 860Q311 860 320 850T330 824V816Q330 800 321 790T296 780Z" />
<glyph unicode="&#xd0;" horiz-adv-x="720" d="M380 700Q455 700 510 672T600 594T653 481T670 350Q670 254 640 175T545 48T380 0H120Q112 0 106 6T100 20V680Q100 688 106 694T120 700H380ZM370 40Q462 40 518 81T601 193T628 350Q628 411 614 467T568 566T488
635T370 660H136L142 668V31L136 40H370ZM300 332Q290 332 285 336T280 351Q280 360 285 365T300 370H460Q470 370 475 365T480 350Q480 341 475 337T460 332H300Z" />
<glyph unicode="&#xd1;" horiz-adv-x="725" d="M606 700Q615 700 620 695T625 681V22Q625 11 619 6T604 0Q600 0 596 2T588 8L124 642L138 649V17Q138 10 133 5T119 0Q110 0 105 5T100 17V680Q100 691 106 695T118 700Q122 700 126 699T133 693L595 63L587 43V681Q587
689 593 694T606 700ZM236 782Q226 782 223 791T224 817Q233 850 256 864T303 878Q324 878 348 864T395 835T435 821Q450 821 459 833T472 866Q473 874 477 879T490 884Q502 884 504 875T504 850Q499 826 488 812T461 791T427 785Q408 785 385 799T339 826T299
840Q284 840 273 830T254 796Q252 789 247 786T236 782Z" />
<glyph unicode="&#xd2;" horiz-adv-x="768" d="M718 350Q718 270 694 204T624 90T518 16T384 -10Q311 -10 250 16T144 90T75 204T50 350Q50 430 74 496T144 610T250 684T384 710Q457 710 518 684T624 610T693 496T718 350ZM676 350Q676 446 639 518T536 630T384
670Q299 670 233 630T130 518T92 350Q92 254 129 182T233 70T384 30Q470 30 535 70T638 182T676 350ZM384 748Q378 748 373 750T363 755L266 802Q252 810 252 826Q252 835 257 842T275 850Q282 850 287 848T297 842L387 775Q391 772 393 769T396 760Q396 756 394
752T384 748Z" />
<glyph unicode="&#xd3;" horiz-adv-x="768" d="M718 350Q718 270 694 204T624 90T518 16T384 -10Q311 -10 250 16T144 90T75 204T50 350Q50 430 74 496T144 610T250 684T384 710Q457 710 518 684T624 610T693 496T718 350ZM676 350Q676 446 639 518T536 630T384
670Q299 670 233 630T130 518T92 350Q92 254 129 182T233 70T384 30Q470 30 535 70T638 182T676 350ZM388 748Q381 748 379 752T376 760Q376 765 378 768T385 775L475 842Q479 845 484 847T497 850Q509 850 514 843T520 826Q520 817 517 812T506 802L409 755Q405
753 400 751T388 748Z" />
<glyph unicode="&#xd4;" horiz-adv-x="768" d="M718 350Q718 270 694 204T624 90T518 16T384 -10Q311 -10 250 16T144 90T75 204T50 350Q50 430 74 496T144 610T250 684T384 710Q457 710 518 684T624 610T693 496T718 350ZM676 350Q676 446 639 518T536 630T384
670Q299 670 233 630T130 518T92 350Q92 254 129 182T233 70T384 30Q470 30 535 70T638 182T676 350ZM388 854L298 778Q293 774 289 771T279 768Q274 768 271 772T267 780Q267 783 268 786T273 792L354 878Q360 884 365 887T378 890H388Q396 890 401 887T412 878L493
793Q496 790 497 787T499 781Q499 777 496 773T487 769Q483 769 478 772T468 779L377 850L388 854Z" />
<glyph unicode="&#xd5;" horiz-adv-x="768" d="M718 350Q718 270 694 204T624 90T518 16T384 -10Q311 -10 250 16T144 90T75 204T50 350Q50 430 74 496T144 610T250 684T384 710Q457 710 518 684T624 610T693 496T718 350ZM676 350Q676 446 639 518T536 630T384
670Q299 670 233 630T130 518T92 350Q92 254 129 182T233 70T384 30Q470 30 535 70T638 182T676 350ZM257 782Q247 782 244 791T245 817Q254 850 277 864T324 878Q345 878 369 864T416 835T456 821Q471 821 480 833T493 866Q494 874 498 879T511 884Q523 884 525
875T525 850Q520 826 509 812T482 791T448 785Q429 785 406 799T360 826T320 840Q305 840 294 830T275 796Q273 789 268 786T257 782Z" />
<glyph unicode="&#xd6;" horiz-adv-x="768" d="M718 350Q718 270 694 204T624 90T518 16T384 -10Q311 -10 250 16T144 90T75 204T50 350Q50 430 74 496T144 610T250 684T384 710Q457 710 518 684T624 610T693 496T718 350ZM676 350Q676 446 639 518T536 630T384
670Q299 670 233 630T130 518T92 350Q92 254 129 182T233 70T384 30Q470 30 535 70T638 182T676 350ZM466 780Q450 780 441 790T431 816V824Q431 840 441 850T467 860Q481 860 490 850T500 824V816Q500 800 491 790T466 780ZM303 780Q287 780 278 790T268 816V824Q268
840 278 850T304 860Q318 860 327 850T337 824V816Q337 800 328 790T303 780Z" />
<glyph unicode="&#xd7;" horiz-adv-x="420" d="M55 67Q47 67 41 73T35 88Q35 97 41 103L349 408Q356 415 365 415Q373 415 379 409T385 394Q385 387 379 379L71 74Q64 67 55 67ZM345 73L52 377Q46 385 46 392Q46 400 51 406T65 412Q74 412 81 405L373 102Q380
96 380 87Q380 76 373 72T360 67Q353 67 345 73Z" />
<glyph unicode="&#xd8;" horiz-adv-x="721" d="M66 -20Q59 -20 54 -15T49 -3Q49 3 54 10L634 707Q640 715 644 716T656 718Q662 718 667 714T673 702Q673 694 667 687L91 -4Q87 -10 82 -15T66 -20ZM718 350Q718 270 694 204T624 90T518 16T384 -10Q311 -10 250
16T144 90T75 204T50 350Q50 430 74 496T144 610T250 684T384 710Q457 710 518 684T624 610T693 496T718 350ZM676 350Q676 446 639 518T536 630T384 670Q299 670 233 630T130 518T92 350Q92 254 129 182T233 70T384 30Q470 30 535 70T638 182T676 350Z" />
<glyph unicode="&#xd9;" horiz-adv-x="715" d="M595 700Q604 700 609 694T615 680V248Q615 177 580 119T487 25T358 -10Q287 -10 229 25T135 118T100 248V680Q100 688 105 694T121 700Q130 700 136 694T142 680V248Q142 188 171 139T249 60T358 30Q418 30 467
59T545 138T575 248V680Q575 688 580 694T595 700ZM358 748Q352 748 347 750T337 755L240 802Q226 810 226 826Q226 835 231 842T249 850Q256 850 261 848T271 842L361 775Q365 772 367 769T370 760Q370 756 368 752T358 748Z" />
<glyph unicode="&#xda;" horiz-adv-x="715" d="M595 700Q604 700 609 694T615 680V248Q615 177 580 119T487 25T358 -10Q287 -10 229 25T135 118T100 248V680Q100 688 105 694T121 700Q130 700 136 694T142 680V248Q142 188 171 139T249 60T358 30Q418 30 467
59T545 138T575 248V680Q575 688 580 694T595 700ZM362 748Q355 748 353 752T350 760Q350 765 352 768T359 775L449 842Q453 845 458 847T471 850Q483 850 488 843T494 826Q494 817 491 812T480 802L383 755Q379 753 374 751T362 748Z" />
<glyph unicode="&#xdb;" horiz-adv-x="715" d="M595 700Q604 700 609 694T615 680V248Q615 177 580 119T487 25T358 -10Q287 -10 229 25T135 118T100 248V680Q100 688 105 694T121 700Q130 700 136 694T142 680V248Q142 188 171 139T249 60T358 30Q418 30 467
59T545 138T575 248V680Q575 688 580 694T595 700ZM362 854L272 778Q267 774 263 771T253 768Q248 768 245 772T241 780Q241 783 242 786T247 792L328 878Q334 884 339 887T352 890H362Q370 890 375 887T386 878L467 793Q470 790 471 787T473 781Q473 777 470 773T461
769Q457 769 452 772T442 779L351 850L362 854Z" />
<glyph unicode="&#xdc;" horiz-adv-x="715" d="M595 700Q604 700 609 694T615 680V248Q615 177 580 119T487 25T358 -10Q287 -10 229 25T135 118T100 248V680Q100 688 105 694T121 700Q130 700 136 694T142 680V248Q142 188 171 139T249 60T358 30Q418 30 467
59T545 138T575 248V680Q575 688 580 694T595 700ZM440 780Q424 780 415 790T405 816V824Q405 840 415 850T441 860Q455 860 464 850T474 824V816Q474 800 465 790T440 780ZM277 780Q261 780 252 790T242 816V824Q242 840 252 850T278 860Q292 860 301 850T311
824V816Q311 800 302 790T277 780Z" />
<glyph unicode="&#xdd;" horiz-adv-x="547" d="M507 704Q517 704 522 697T527 685Q527 681 526 678T523 672L286 350L295 379V20Q295 12 289 6T274 0Q264 0 259 6T253 20V372L258 351L24 672Q22 675 21 678T20 685Q20 693 27 698T41 704Q52 704 58 695L280 392L270
394L490 695Q496 704 507 704ZM278 748Q271 748 269 752T266 760Q266 765 268 768T275 775L365 842Q369 845 374 847T387 850Q399 850 404 843T410 826Q410 817 407 812T396 802L299 755Q295 753 290 751T278 748Z" />
<glyph unicode="&#xde;" horiz-adv-x="583" d="M140 20Q140 12 134 6T120 0Q111 0 106 6T100 20V720Q100 728 106 734T120 740Q129 740 134 734T140 720V20ZM127 238H349Q395 238 427 258T478 315T496 396Q496 442 478 475T428 528T349 547H128L109 587H349Q406
587 448 563T514 496T538 396Q538 340 515 295T449 224T349 198H127V238Z" />
<glyph unicode="&#xdf;" horiz-adv-x="586" d="M118 0Q108 0 103 5T98 20L100 493Q100 528 109 568T141 645T201 703T294 726Q349 726 384 707T436 657T453 591Q453 576 445 552T418 505T367 471V475Q416 461 454 428T515 347T538 237Q538 165 508 110T428 22T319
-10Q297 -10 274 -7T235 6Q226 11 223 18T225 34Q230 43 238 44T255 40Q268 33 284 29T319 25Q363 25 404 50T471 123T498 232Q498 302 471 346T404 414T323 447Q313 449 308 456T302 471Q302 477 306 483T319 491Q354 498 374 515T404 553T413 589Q413 627 382
656T294 686Q250 686 220 668T173 621T148 559T140 493L138 20Q138 10 133 5T118 0ZM47 465Q40 465 34 471T28 484Q28 492 34 497T47 503H108Q116 503 121 497T127 484Q127 476 122 471T108 465H47Z" />
<glyph unicode="&#xe0;" horiz-adv-x="595" d="M492 499Q501 499 506 493T512 479V20Q512 12 506 6T492 0Q483 0 478 6T472 20V162L488 175Q488 143 472 110T428 50T362 7T280 -10Q213 -10 161 25T78 120T48 255Q48 331 78 389T161 481T280 515Q323 515 361 500T427
456T472 391T488 309L472 334V479Q472 487 477 493T492 499ZM282 28Q338 28 382 57T451 138T476 255Q476 317 451 367T382 447T282 477Q227 477 183 449T114 370T88 255Q88 190 113 139T182 58T282 28ZM289 554Q282 554 275 559T263 569L192 648Q189 652 187 655T185
665Q185 676 191 682T207 688Q218 688 224 683T233 672L295 579Q300 571 300 566Q300 562 297 558T289 554Z" />
<glyph unicode="&#xe1;" horiz-adv-x="595" d="M492 499Q501 499 506 493T512 479V20Q512 12 506 6T492 0Q483 0 478 6T472 20V162L488 175Q488 143 472 110T428 50T362 7T280 -10Q213 -10 161 25T78 120T48 255Q48 331 78 389T161 481T280 515Q323 515 361 500T427
456T472 391T488 309L472 334V479Q472 487 477 493T492 499ZM282 28Q338 28 382 57T451 138T476 255Q476 317 451 367T382 447T282 477Q227 477 183 449T114 370T88 255Q88 190 113 139T182 58T282 28ZM270 802Q265 802 262 806T259 814Q259 819 264 827L326 920Q329
925 335 930T352 936Q363 936 370 930T378 911Q378 905 376 902T371 894L296 817Q291 812 285 807T270 802Z" />
<glyph unicode="&#xe2;" horiz-adv-x="595" d="M492 499Q501 499 506 493T512 479V20Q512 12 506 6T492 0Q483 0 478 6T472 20V162L488 175Q488 143 472 110T428 50T362 7T280 -10Q213 -10 161 25T78 120T48 255Q48 331 78 389T161 481T280 515Q323 515 361 500T427
456T472 391T488 309L472 334V479Q472 487 477 493T492 499ZM282 28Q338 28 382 57T451 138T476 255Q476 317 451 367T382 447T282 477Q227 477 183 449T114 370T88 255Q88 190 113 139T182 58T282 28ZM295 909L205 833Q200 829 196 826T186 823Q181 823 178 827T174
835Q174 838 175 841T180 847L261 933Q269 945 285 945H295Q303 945 309 943T319 933L400 848Q403 845 404 842T406 836Q406 832 403 828T394 824Q390 824 385 827T375 834L284 905L295 909Z" />
<glyph unicode="&#xe3;" horiz-adv-x="595" d="M492 499Q501 499 506 493T512 479V20Q512 12 506 6T492 0Q483 0 478 6T472 20V162L488 175Q488 143 472 110T428 50T362 7T280 -10Q213 -10 161 25T78 120T48 255Q48 331 78 389T161 481T280 515Q323 515 361 500T427
456T472 391T488 309L472 334V479Q472 487 477 493T492 499ZM282 28Q338 28 382 57T451 138T476 255Q476 317 451 367T382 447T282 477Q227 477 183 449T114 370T88 255Q88 190 113 139T182 58T282 28ZM161 834Q147 834 146 843T149 869Q158 902 181 916T228 930Q244
930 261 922T297 903T331 884T360 875Q375 875 384 886T396 918Q397 926 402 931T415 936Q430 936 431 927T429 902Q424 878 413 864T386 843T352 837Q338 837 321 845T287 863T253 882T224 890Q209 890 198 881T180 848Q178 841 173 838T161 834Z" />
<glyph unicode="&#xe4;" horiz-adv-x="595" d="M492 499Q501 499 506 493T512 479V20Q512 12 506 6T492 0Q483 0 478 6T472 20V162L488 175Q488 143 472 110T428 50T362 7T280 -10Q213 -10 161 25T78 120T48 255Q48 331 78 389T161 481T280 515Q323 515 361 500T427
456T472 391T488 309L472 334V479Q472 487 477 493T492 499ZM282 28Q338 28 382 57T451 138T476 255Q476 317 451 367T382 447T282 477Q227 477 183 449T114 370T88 255Q88 190 113 139T182 58T282 28ZM614 845Q598 845 589 855T579 881V889Q579 905 589 915T615
925Q629 925 638 915T648 889V881Q648 865 639 855T614 845ZM451 845Q435 845 426 855T416 881V889Q416 905 426 915T452 925Q466 925 475 915T485 889V881Q485 865 476 855T451 845Z" />
<glyph unicode="&#xe5;" horiz-adv-x="595" d="M492 499Q501 499 506 493T512 479V20Q512 12 506 6T492 0Q483 0 478 6T472 20V162L488 175Q488 143 472 110T428 50T362 7T280 -10Q213 -10 161 25T78 120T48 255Q48 331 78 389T161 481T280 515Q323 515 361 500T427
456T472 391T488 309L472 334V479Q472 487 477 493T492 499ZM282 28Q338 28 382 57T451 138T476 255Q476 317 451 367T382 447T282 477Q227 477 183 449T114 370T88 255Q88 190 113 139T182 58T282 28ZM288 550Q262 550 240 562T204 596T190 644Q190 670 203 691T239
725T288 738Q314 738 336 726T372 692T386 644Q386 618 373 597T337 563T288 550ZM288 582Q314 582 332 600T350 644Q350 670 332 688T288 706Q263 706 245 688T226 644Q226 619 244 601T288 582Z" />
<glyph unicode="&#xe6;" horiz-adv-x="887" d="M266 515Q298 515 326 509T377 488T413 449T426 388V252L390 251V370Q390 414 371 437T324 468T266 477Q233 477 200 463T139 428T96 384Q89 375 79 375Q72 375 67 380T62 393Q62 396 63 399T66 405Q87 432 118 457T188
499T266 515ZM198 -10Q163 -10 129 6T71 55T48 136Q48 213 117 258T320 304H808L798 295V313Q793 366 765 402T696 456T613 475Q583 475 550 462T489 421T444 351T426 253Q426 192 450 141T523 59T643 28Q677 28 707 39T761 70T800 111Q808 120 817 120Q824 120
829 115T834 102Q834 95 830 90Q799 50 751 20T643 -10Q568 -10 510 22T420 112T387 250Q387 334 419 393T503 483T613 515Q655 515 695 502T766 460T817 389T839 287Q839 279 833 273T819 266H322Q247 266 195 251T116 208T88 140Q88 102 106 77T150 40T202 28Q246
28 287 49T360 101T404 157L426 125Q408 98 378 67T303 13T198 -10Z" />
<glyph unicode="&#xe7;" horiz-adv-x="513" d="M300 515Q345 515 384 505T448 479T473 444Q473 437 468 431T454 424Q443 424 437 430T423 444T401 460Q387 467 362 472T299 477Q241 477 193 447T117 367T88 253Q88 189 114 138T188 58T299 28Q344 28 367 36T408
55Q429 67 437 78T456 89Q464 89 468 84T473 71Q473 59 451 40T390 5T296 -10Q223 -10 167 24T80 118T48 253Q48 323 79 382T167 478T300 515ZM231 -141Q226 -141 218 -138T203 -128T196 -114Q196 -105 201 -100L291 10H319L252 -126Q245 -141 231 -141Z" />
<glyph unicode="&#xe8;" horiz-adv-x="548" d="M304 -10Q229 -10 172 22T81 112T48 250Q48 334 80 393T164 483T274 515Q316 515 356 502T427 460T478 389T500 287Q500 279 494 273T480 266H72L66 304H469L459 295V313Q454 366 426 402T357 456T274 475Q244 475
211 462T150 421T105 351T87 253Q87 192 111 141T184 59T304 28Q338 28 368 39T422 70T461 111Q469 120 478 120Q485 120 490 115T495 102Q495 95 491 90Q460 50 412 20T304 -10ZM282 554Q275 554 268 559T256 569L185 648Q182 652 180 655T178 665Q178 676 184
682T200 688Q211 688 217 683T226 672L288 579Q293 571 293 566Q293 562 290 558T282 554Z" />
<glyph unicode="&#xe9;" horiz-adv-x="548" d="M304 -10Q229 -10 172 22T81 112T48 250Q48 334 80 393T164 483T274 515Q316 515 356 502T427 460T478 389T500 287Q500 279 494 273T480 266H72L66 304H469L459 295V313Q454 366 426 402T357 456T274 475Q244 475
211 462T150 421T105 351T87 253Q87 192 111 141T184 59T304 28Q338 28 368 39T422 70T461 111Q469 120 478 120Q485 120 490 115T495 102Q495 95 491 90Q460 50 412 20T304 -10ZM263 802Q258 802 255 806T252 814Q252 819 257 827L319 920Q322 925 328 930T345
936Q356 936 363 930T371 911Q371 905 369 902T364 894L289 817Q284 812 278 807T263 802Z" />
<glyph unicode="&#xea;" horiz-adv-x="548" d="M304 -10Q229 -10 172 22T81 112T48 250Q48 334 80 393T164 483T274 515Q316 515 356 502T427 460T478 389T500 287Q500 279 494 273T480 266H72L66 304H469L459 295V313Q454 366 426 402T357 456T274 475Q244 475
211 462T150 421T105 351T87 253Q87 192 111 141T184 59T304 28Q338 28 368 39T422 70T461 111Q469 120 478 120Q485 120 490 115T495 102Q495 95 491 90Q460 50 412 20T304 -10ZM288 909L198 833Q193 829 189 826T179 823Q174 823 171 827T167 835Q167 838 168
841T173 847L254 933Q262 945 278 945H288Q296 945 302 943T312 933L393 848Q396 845 397 842T399 836Q399 832 396 828T387 824Q383 824 378 827T368 834L277 905L288 909Z" />
<glyph unicode="&#xeb;" horiz-adv-x="548" d="M304 -10Q229 -10 172 22T81 112T48 250Q48 334 80 393T164 483T274 515Q316 515 356 502T427 460T478 389T500 287Q500 279 494 273T480 266H72L66 304H469L459 295V313Q454 366 426 402T357 456T274 475Q244 475
211 462T150 421T105 351T87 253Q87 192 111 141T184 59T304 28Q338 28 368 39T422 70T461 111Q469 120 478 120Q485 120 490 115T495 102Q495 95 491 90Q460 50 412 20T304 -10ZM607 1101Q591 1101 582 1111T572 1137V1145Q572 1161 582 1171T608 1181Q622 1181
631 1171T641 1145V1137Q641 1121 632 1111T607 1101ZM444 1101Q428 1101 419 1111T409 1137V1145Q409 1161 419 1171T445 1181Q459 1181 468 1171T478 1145V1137Q478 1121 469 1111T444 1101Z" />
<glyph unicode="&#xec;" horiz-adv-x="206" d="M123 20Q123 12 117 6T103 0Q94 0 89 6T83 20V495Q83 503 89 509T103 515Q112 515 117 509T123 495V20ZM360 554Q353 554 346 559T334 569L263 648Q260 652 258 655T256 665Q256 676 262 682T278 688Q289 688 295
683T304 672L366 579Q371 571 371 566Q371 562 368 558T360 554Z" />
<glyph unicode="&#xed;" horiz-adv-x="206" d="M123 20Q123 12 117 6T103 0Q94 0 89 6T83 20V495Q83 503 89 509T103 515Q112 515 117 509T123 495V20ZM341 802Q336 802 333 806T330 814Q330 819 335 827L397 920Q400 925 406 930T423 936Q434 936 441 930T449
911Q449 905 447 902T442 894L367 817Q362 812 356 807T341 802Z" />
<glyph unicode="&#xee;" horiz-adv-x="206" d="M123 20Q123 12 117 6T103 0Q94 0 89 6T83 20V495Q83 503 89 509T103 515Q112 515 117 509T123 495V20ZM366 909L276 833Q271 829 267 826T257 823Q252 823 249 827T245 835Q245 838 246 841T251 847L332 933Q340
945 356 945H366Q374 945 380 943T390 933L471 848Q474 845 475 842T477 836Q477 832 474 828T465 824Q461 824 456 827T446 834L355 905L366 909Z" />
<glyph unicode="&#xef;" horiz-adv-x="206" d="M123 20Q123 12 117 6T103 0Q94 0 89 6T83 20V495Q83 503 89 509T103 515Q112 515 117 509T123 495V20ZM685 1101Q669 1101 660 1111T650 1137V1145Q650 1161 660 1171T686 1181Q700 1181 709 1171T719 1145V1137Q719
1121 710 1111T685 1101ZM522 1101Q506 1101 497 1111T487 1137V1145Q487 1161 497 1171T523 1181Q537 1181 546 1171T556 1145V1137Q556 1121 547 1111T522 1101Z" />
<glyph unicode="&#xf0;" horiz-adv-x="561" d="M280 -1Q216 -1 163 35T79 130T48 261Q48 314 66 359T115 439T189 493T280 513Q333 513 372 491T437 434T477 362L460 368Q450 423 429 477T375 577T295 655T183 700Q176 702 172 706T167 718Q167 729 171 734T185
740Q190 740 192 739Q266 724 320 685T412 593T471 484T503 375T513 285Q513 202 482 137T398 36T280 -1ZM280 37Q333 37 376 68T446 150T472 261Q472 316 447 365T378 444T280 475Q227 475 183 447T114 370T88 261Q88 201 114 150T184 68T280 37ZM231 553Q223
550 216 553T205 564Q202 572 205 579T217 590L323 631L358 644L454 682Q462 686 469 683T480 671Q483 663 480 656T468 645L386 613L354 601L231 553Z" />
<glyph unicode="&#xf1;" horiz-adv-x="572" d="M310 515Q373 515 412 490T470 422T489 326V20Q489 12 483 6T469 0Q460 0 455 6T449 20V322Q449 365 435 400T389 456T306 477Q262 477 220 456T151 400T123 322V20Q123 12 117 6T103 0Q94 0 89 6T83 20V479Q83 487
89 493T103 499Q112 499 117 493T123 479V381L98 333Q98 369 117 402T167 460T235 500T310 515ZM159 834Q145 834 144 843T147 869Q156 902 179 916T226 930Q242 930 259 922T295 903T329 884T358 875Q373 875 382 886T394 918Q395 926 400 931T413 936Q428 936
429 927T427 902Q422 878 411 864T384 843T350 837Q336 837 319 845T285 863T251 882T222 890Q207 890 196 881T178 848Q176 841 171 838T159 834Z" />
<glyph unicode="&#xf2;" horiz-adv-x="589" d="M541 252Q541 178 509 119T422 25T295 -10Q225 -10 169 24T81 118T48 252Q48 327 80 386T169 480T295 515Q366 515 421 481T509 387T541 252ZM501 252Q501 317 475 367T402 447T295 477Q236 477 189 448T115 368T88
252Q88 188 115 138T189 58T295 28Q355 28 401 57T474 137T501 252ZM296 564Q289 564 282 569T270 579L199 658Q196 662 194 665T192 675Q192 686 198 692T214 698Q225 698 231 693T240 682L302 589Q307 581 307 576Q307 572 304 568T296 564Z" />
<glyph unicode="&#xf3;" horiz-adv-x="589" d="M541 252Q541 178 509 119T422 25T295 -10Q225 -10 169 24T81 118T48 252Q48 327 80 386T169 480T295 515Q366 515 421 481T509 387T541 252ZM501 252Q501 317 475 367T402 447T295 477Q236 477 189 448T115 368T88
252Q88 188 115 138T189 58T295 28Q355 28 401 57T474 137T501 252ZM277 812Q272 812 269 816T266 824Q266 829 271 837L333 930Q336 935 342 940T359 946Q370 946 377 940T385 921Q385 915 383 912T378 904L303 827Q298 822 292 817T277 812Z" />
<glyph unicode="&#xf4;" horiz-adv-x="589" d="M541 252Q541 178 509 119T422 25T295 -10Q225 -10 169 24T81 118T48 252Q48 327 80 386T169 480T295 515Q366 515 421 481T509 387T541 252ZM501 252Q501 317 475 367T402 447T295 477Q236 477 189 448T115 368T88
252Q88 188 115 138T189 58T295 28Q355 28 401 57T474 137T501 252ZM302 663L212 587Q207 583 203 580T193 577Q188 577 185 581T181 589Q181 592 182 595T187 601L268 687Q276 699 292 699H302Q310 699 316 697T326 687L407 602Q410 599 411 596T413 590Q413 586
410 582T401 578Q397 578 392 581T382 588L291 659L302 663Z" />
<glyph unicode="&#xf5;" horiz-adv-x="589" d="M541 252Q541 178 509 119T422 25T295 -10Q225 -10 169 24T81 118T48 252Q48 327 80 386T169 480T295 515Q366 515 421 481T509 387T541 252ZM501 252Q501 317 475 367T402 447T295 477Q236 477 189 448T115 368T88
252Q88 188 115 138T189 58T295 28Q355 28 401 57T474 137T501 252ZM168 588Q154 588 153 597T156 623Q165 656 188 670T235 684Q251 684 268 676T304 657T338 638T367 629Q382 629 391 640T403 672Q404 680 409 685T422 690Q437 690 438 681T436 656Q431 632 420
618T393 597T359 591Q345 591 328 599T294 617T260 636T231 644Q216 644 205 635T187 602Q185 595 180 592T168 588Z" />
<glyph unicode="&#xf6;" horiz-adv-x="589" d="M541 252Q541 178 509 119T422 25T295 -10Q225 -10 169 24T81 118T48 252Q48 327 80 386T169 480T295 515Q366 515 421 481T509 387T541 252ZM501 252Q501 317 475 367T402 447T295 477Q236 477 189 448T115 368T88
252Q88 188 115 138T189 58T295 28Q355 28 401 57T474 137T501 252ZM621 855Q605 855 596 865T586 891V899Q586 915 596 925T622 935Q636 935 645 925T655 899V891Q655 875 646 865T621 855ZM458 855Q442 855 433 865T423 891V899Q423 915 433 925T459 935Q473
935 482 925T492 899V891Q492 875 483 865T458 855Z" />
<glyph unicode="&#xf7;" horiz-adv-x="544" d="M233 365Q233 380 243 390T267 401Q281 401 291 391T302 365Q302 351 292 341T267 331Q253 331 243 341T233 365ZM233 24Q233 38 243 48T267 59Q281 59 291 49T302 24Q302 10 292 0T267 -10Q253 -10 243 0T233 24ZM71
177Q62 177 56 183T50 198Q50 206 56 211T71 217H473Q482 217 488 211T494 196Q494 189 488 183T473 177H71Z" />
<glyph unicode="&#xf8;" horiz-adv-x="597" d="M48 -25Q41 -25 35 -19T28 -5Q28 3 33 9L480 531Q486 539 495 539Q503 539 509 533T515 519Q515 510 510 505L63 -17Q57 -25 48 -25ZM541 252Q541 178 509 119T422 25T295 -10Q225 -10 169 24T81 118T48 252Q48 327
80 386T169 480T295 515Q366 515 421 481T509 387T541 252ZM501 252Q501 317 475 367T402 447T295 477Q236 477 189 448T115 368T88 252Q88 188 115 138T189 58T295 28Q355 28 401 57T474 137T501 252Z" />
<glyph unicode="&#xf9;" horiz-adv-x="563" d="M460 499Q469 499 474 493T480 479V188Q480 91 426 43T281 -6Q192 -6 138 42T83 188V479Q83 487 89 493T103 499Q112 499 117 493T123 479V188Q123 112 165 72T281 32Q355 32 397 72T440 188V479Q440 487 445 493T460
499ZM283 554Q276 554 269 559T257 569L186 648Q183 652 181 655T179 665Q179 676 185 682T201 688Q212 688 218 683T227 672L289 579Q294 571 294 566Q294 562 291 558T283 554Z" />
<glyph unicode="&#xfa;" horiz-adv-x="563" d="M460 499Q469 499 474 493T480 479V188Q480 91 426 43T281 -6Q192 -6 138 42T83 188V479Q83 487 89 493T103 499Q112 499 117 493T123 479V188Q123 112 165 72T281 32Q355 32 397 72T440 188V479Q440 487 445 493T460
499ZM264 802Q259 802 256 806T253 814Q253 819 258 827L320 920Q323 925 329 930T346 936Q357 936 364 930T372 911Q372 905 370 902T365 894L290 817Q285 812 279 807T264 802Z" />
<glyph unicode="&#xfb;" horiz-adv-x="563" d="M460 499Q469 499 474 493T480 479V188Q480 91 426 43T281 -6Q192 -6 138 42T83 188V479Q83 487 89 493T103 499Q112 499 117 493T123 479V188Q123 112 165 72T281 32Q355 32 397 72T440 188V479Q440 487 445 493T460
499ZM289 909L199 833Q194 829 190 826T180 823Q175 823 172 827T168 835Q168 838 169 841T174 847L255 933Q263 945 279 945H289Q297 945 303 943T313 933L394 848Q397 845 398 842T400 836Q400 832 397 828T388 824Q384 824 379 827T369 834L278 905L289 909Z"
/>
<glyph unicode="&#xfc;" horiz-adv-x="563" d="M460 499Q469 499 474 493T480 479V188Q480 91 426 43T281 -6Q192 -6 138 42T83 188V479Q83 487 89 493T103 499Q112 499 117 493T123 479V188Q123 112 165 72T281 32Q355 32 397 72T440 188V479Q440 487 445 493T460
499ZM608 1101Q592 1101 583 1111T573 1137V1145Q573 1161 583 1171T609 1181Q623 1181 632 1171T642 1145V1137Q642 1121 633 1111T608 1101ZM445 1101Q429 1101 420 1111T410 1137V1145Q410 1161 420 1171T446 1181Q460 1181 469 1171T479 1145V1137Q479 1121
470 1111T445 1101Z" />
<glyph unicode="&#xfd;" horiz-adv-x="562" d="M459 515Q468 515 473 509T479 495V49Q479 -28 448 -84T364 -170T243 -200Q197 -200 161 -189T101 -162Q94 -157 90 -150T90 -135Q94 -127 101 -124T116 -126Q133 -136 167 -150T245 -164Q303 -164 346 -137T414
-62T439 49V123L441 98Q427 68 399 44T335 5T261 -10Q199 -10 160 14T102 82T83 183V495Q83 503 88 509T103 515Q112 515 117 509T123 495V183Q123 112 154 70T261 28Q306 28 346 50T413 109T439 183V495Q439 503 444 509T459 515ZM263 802Q258 802 255 806T252
814Q252 819 257 827L319 920Q322 925 328 930T345 936Q356 936 363 930T371 911Q371 905 369 902T364 894L289 817Q284 812 278 807T263 802Z" />
<glyph unicode="&#xfe;" horiz-adv-x="595" d="M315 505Q382 505 434 472T516 382T547 250Q547 177 517 119T434 28T315 -6Q282 -6 252 3T195 30T148 74T110 133L123 147V-180Q123 -188 118 -194T103 -200Q95 -200 89 -194T83 -180V720Q83 728 88 734T103 740Q112
740 117 734T123 720V357L110 364Q124 401 145 428T193 472T251 497T315 505ZM313 467Q256 467 213 439T144 363T119 250Q119 187 144 138T212 60T313 32Q369 32 412 60T481 137T507 250Q507 313 482 362T413 439T313 467Z" />
<glyph unicode="&#xff;" horiz-adv-x="562" d="M459 515Q468 515 473 509T479 495V49Q479 -28 448 -84T364 -170T243 -200Q197 -200 161 -189T101 -162Q94 -157 90 -150T90 -135Q94 -127 101 -124T116 -126Q133 -136 167 -150T245 -164Q303 -164 346 -137T414
-62T439 49V123L441 98Q427 68 399 44T335 5T261 -10Q199 -10 160 14T102 82T83 183V495Q83 503 88 509T103 515Q112 515 117 509T123 495V183Q123 112 154 70T261 28Q306 28 346 50T413 109T439 183V495Q439 503 444 509T459 515ZM607 1101Q591 1101 582 1111T572
1137V1145Q572 1161 582 1171T608 1181Q622 1181 631 1171T641 1145V1137Q641 1121 632 1111T607 1101ZM444 1101Q428 1101 419 1111T409 1137V1145Q409 1161 419 1171T445 1181Q459 1181 468 1171T478 1145V1137Q478 1121 469 1111T444 1101Z" />
<glyph unicode="&#x2013;" horiz-adv-x="508" d="M81 228Q72 228 66 233T60 247Q60 257 66 261T81 266H427Q436 266 442 262T448 247Q448 238 442 233T427 228H81Z" />
<glyph unicode="&#x2014;" horiz-adv-x="822" d="M81 228Q72 228 66 234T60 249Q60 259 66 265T81 271H741Q750 271 756 265T762 249Q762 240 756 234T741 228H81Z" />
<glyph unicode="&#x2018;" horiz-adv-x="167" d="M31 594Q31 618 39 638T60 675T89 699T117 708Q124 708 129 704T135 692Q135 678 125 677T100 668Q86 661 79 646T71 615Q71 604 75 598T88 591Q95 591 102 593T114 600Q119 595 121 589T122 577Q121 569 115 562T99
551T78 547Q58 547 45 559T31 594Z" />
<glyph unicode="&#x2019;" horiz-adv-x="167" d="M135 661Q135 637 127 617T106 580T77 556T49 547Q42 547 37 551T31 563Q31 577 41 578T66 587Q80 594 87 609T95 640Q95 651 91 657T78 664Q71 664 64 662T52 655Q47 660 45 666T44 678Q45 686 51 693T67 704T88
708Q108 708 121 696T135 661Z" />
<glyph unicode="&#x201a;" horiz-adv-x="174" d="M139 1Q139 -23 131 -43T110 -80T82 -104T53 -113Q46 -113 41 -109T35 -97Q35 -83 45 -82T70 -73Q84 -65 91 -50T99 -20Q99 -9 95 -3T82 4Q75 4 68 2T56 -5Q52 0 50 6T48 18Q49 26 55 33T72 44T92 48Q112 48 125
36T139 1Z" />
<glyph unicode="&#x201c;" horiz-adv-x="314" d="M31 594Q31 618 39 638T60 675T89 699T117 708Q124 708 129 704T135 692Q135 678 125 677T100 668Q86 661 79 646T71 615Q71 604 75 598T88 591Q95 591 102 593T114 600Q119 595 121 589T122 577Q121 569 115 562T99
551T78 547Q58 547 45 559T31 594ZM171 594Q171 618 179 638T200 675T229 699T257 708Q264 708 269 704T275 692Q275 678 265 677T240 668Q226 661 219 646T211 615Q211 604 215 598T228 591Q235 591 242 593T254 600Q259 595 261 589T262 577Q261 569 255 562T239
551T218 547Q198 547 185 559T171 594Z" />
<glyph unicode="&#x201d;" horiz-adv-x="314" d="M275 661Q275 637 267 617T246 580T217 556T189 547Q182 547 177 551T171 563Q171 577 181 578T206 587Q220 594 227 609T235 640Q235 651 231 657T218 664Q211 664 204 662T192 655Q187 660 185 666T184 678Q185
686 191 693T207 704T228 708Q248 708 261 696T275 661ZM135 661Q135 637 127 617T106 580T77 556T49 547Q42 547 37 551T31 563Q31 577 41 578T66 587Q80 594 87 609T95 640Q95 651 91 657T78 664Q71 664 64 662T52 655Q47 660 45 666T44 678Q45 686 51 693T67
704T88 708Q108 708 121 696T135 661Z" />
<glyph unicode="&#x201e;" horiz-adv-x="275" d="M135 1Q135 -23 127 -43T106 -80T78 -104T49 -113Q42 -113 37 -109T31 -97Q31 -83 41 -82T66 -73Q80 -65 87 -50T95 -20Q95 -9 91 -3T78 4Q71 4 64 2T52 -5Q48 0 46 6T44 18Q45 26 51 33T68 44T88 48Q108 48 121
36T135 1ZM255 1Q255 -23 247 -43T226 -80T198 -104T169 -113Q162 -113 157 -109T151 -97Q151 -83 161 -82T186 -73Q200 -65 207 -50T215 -20Q215 -9 211 -3T198 4Q191 4 184 2T172 -5Q168 0 166 6T164 18Q165 26 171 33T188 44T208 48Q228 48 241 36T255 1Z" />
<glyph unicode="&#x2022;" horiz-adv-x="340" d="M170 228Q136 228 108 245T63 290T46 352Q46 386 63 414T108 459T170 476Q204 476 232 459T277 414T294 352Q294 318 277 290T232 245T170 228Z" />
<glyph unicode="&#x2039;" horiz-adv-x="273" d="M203 50Q194 50 186 59L52 238Q46 246 46 256Q46 265 52 272L186 451Q194 461 204 461Q213 461 219 456T225 442Q225 433 218 426L89 249L86 265L218 87Q221 83 223 80T225 72Q225 60 218 55T203 50Z" />
<glyph unicode="&#x203a;" horiz-adv-x="273" d="M68 461Q78 461 85 452L219 273Q225 266 225 255Q225 247 219 239L85 60Q77 50 67 50Q58 50 52 55T46 69Q46 78 53 85L182 262L185 246L53 424Q50 428 48 431T46 439Q46 451 53 456T68 461Z" />
</font>
</defs>
</svg>
